  0
SECTION
  2
HEADER
  9
$ACADVER
  1
AC1015
  9
$ACADMAINTVER
 70
     6
  9
$DWGCODEPAGE
  3
ANSI_1252
  9
$INSBASE
 10
0.0
 20
0.0
 30
0.0
  9
$EXTMIN
 10
0.0
 20
0.0
 30
0.0
  9
$EXTMAX
 10
431.8
 20
279.4
 30
0.0
  9
$LIMMIN
 10
0.0
 20
0.0
  9
$LIMMAX
 10
431.8
 20
279.4
  9
$ORTHOMODE
 70
     0
  9
$REGENMODE
 70
     1
  9
$FILLMODE
 70
     1
  9
$QTEXTMODE
 70
     0
  9
$MIRRTEXT
 70
     1
  9
$LTSCALE
 40
1.0
  9
$ATTMODE
 70
     1
  9
$TEXTSIZE
 40
3.175
  9
$TRACEWID
 40
1.0
  9
$TEXTSTYLE
  7
Standard
  9
$CLAYER
  8
0
  9
$CELTYPE
  6
ByLayer
  9
$CECOLOR
 62
   256
  9
$CELTSCALE
 40
1.0
  9
$DISPSILH
 70
     0
  9
$DIMSCALE
 40
1.0
  9
$DIMASZ
 40
3.302
  9
$DIMEXO
 40
1.27
  9
$DIMDLI
 40
3.75
  9
$DIMRND
 40
0.0
  9
$DIMDLE
 40
0.0
  9
$DIMEXE
 40
3.175
  9
$DIMTP
 40
0.0
  9
$DIMTM
 40
0.0
  9
$DIMTXT
 40
3.175
  9
$DIMCEN
 40
2.5
  9
$DIMTSZ
 40
0.0
  9
$DIMTOL
 70
     0
  9
$DIMLIM
 70
     0
  9
$DIMTIH
 70
     1
  9
$DIMTOH
 70
     1
  9
$DIMSE1
 70
     0
  9
$DIMSE2
 70
     0
  9
$DIMTAD
 70
     0
  9
$DIMZIN
 70
     0
  9
$DIMBLK
  1

  9
$DIMASO
 70
     1
  9
$DIMSHO
 70
     1
  9
$DIMPOST
  1

  9
$DIMAPOST
  1

  9
$DIMALT
 70
     0
  9
$DIMALTD
 70
     3
  9
$DIMALTF
 40
0.0393700787
  9
$DIMLFAC
 40
2.0
  9
$DIMTOFL
 70
     1
  9
$DIMTVP
 40
0.0
  9
$DIMTIX
 70
     0
  9
$DIMSOXD
 70
     0
  9
$DIMSAH
 70
     0
  9
$DIMBLK1
  1

  9
$DIMBLK2
  1

  9
$DIMSTYLE
  2
ISO-25
  9
$DIMCLRD
 70
     0
  9
$DIMCLRE
 70
     0
  9
$DIMCLRT
 70
     0
  9
$DIMTFAC
 40
1.0
  9
$DIMGAP
 40
1.524
  9
$DIMJUST
 70
     0
  9
$DIMSD1
 70
     0
  9
$DIMSD2
 70
     0
  9
$DIMTOLJ
 70
     0
  9
$DIMTZIN
 70
     0
  9
$DIMALTZ
 70
     0
  9
$DIMALTTZ
 70
     0
  9
$DIMUPT
 70
     0
  9
$DIMDEC
 70
     3
  9
$DIMTDEC
 70
     3
  9
$DIMALTU
 70
     2
  9
$DIMALTTD
 70
     3
  9
$DIMTXSTY
  7
Standard
  9
$DIMAUNIT
 70
     0
  9
$DIMADEC
 70
     2
  9
$DIMALTRND
 40
0.0
  9
$DIMAZIN
 70
     0
  9
$DIMDSEP
 70
    44
  9
$DIMATFIT
 70
     3
  9
$DIMFRAC
 70
     0
  9
$DIMLDRBLK
  1

  9
$DIMLUNIT
 70
     2
  9
$DIMLWD
 70
    -2
  9
$DIMLWE
 70
    -2
  9
$DIMTMOVE
 70
     0
  9
$LUNITS
 70
     2
  9
$LUPREC
 70
     3
  9
$SKETCHINC
 40
1.0
  9
$FILLETRAD
 40
10.0
  9
$AUNITS
 70
     0
  9
$AUPREC
 70
     2
  9
$MENU
  1
.
  9
$ELEVATION
 40
0.0
  9
$PELEVATION
 40
0.0
  9
$THICKNESS
 40
0.0
  9
$LIMCHECK
 70
     0
  9
$CHAMFERA
 40
0.0
  9
$CHAMFERB
 40
0.0
  9
$CHAMFERC
 40
0.0
  9
$CHAMFERD
 40
0.0
  9
$SKPOLY
 70
     0
  9
$TDCREATE
 40
2459052.587490938
  9
$TDUCREATE
 40
2459052.795824271
  9
$TDUPDATE
 40
2459052.587503819
  9
$TDUUPDATE
 40
2459052.795837153
  9
$TDINDWG
 40
0.0000000116
  9
$TDUSRTIMER
 40
0.0000000116
  9
$USRTIMER
 70
     1
  9
$ANGBASE
 50
0.0
  9
$ANGDIR
 70
     0
  9
$PDMODE
 70
     0
  9
$PDSIZE
 40
-1.0
  9
$PLINEWID
 40
0.0
  9
$SPLFRAME
 70
     0
  9
$SPLINETYPE
 70
     6
  9
$SPLINESEGS
 70
     8
  9
$HANDSEED
  5
315
  9
$SURFTAB1
 70
     6
  9
$SURFTAB2
 70
     6
  9
$SURFTYPE
 70
     6
  9
$SURFU
 70
     6
  9
$SURFV
 70
     6
  9
$UCSBASE
  2

  9
$UCSNAME
  2

  9
$UCSORG
 10
0.0
 20
0.0
 30
0.0
  9
$UCSXDIR
 10
1.0
 20
0.0
 30
0.0
  9
$UCSYDIR
 10
0.0
 20
1.0
 30
0.0
  9
$UCSORTHOREF
  2

  9
$UCSORTHOVIEW
 70
     0
  9
$UCSORGTOP
 10
0.0
 20
0.0
 30
0.0
  9
$UCSORGBOTTOM
 10
0.0
 20
0.0
 30
0.0
  9
$UCSORGLEFT
 10
0.0
 20
0.0
 30
0.0
  9
$UCSORGRIGHT
 10
0.0
 20
0.0
 30
0.0
  9
$UCSORGFRONT
 10
0.0
 20
0.0
 30
0.0
  9
$UCSORGBACK
 10
0.0
 20
0.0
 30
0.0
  9
$PUCSBASE
  2

  9
$PUCSNAME
  2

  9
$PUCSORG
 10
0.0
 20
0.0
 30
0.0
  9
$PUCSXDIR
 10
1.0
 20
0.0
 30
0.0
  9
$PUCSYDIR
 10
0.0
 20
1.0
 30
0.0
  9
$PUCSORTHOREF
  2

  9
$PUCSORTHOVIEW
 70
     0
  9
$PUCSORGTOP
 10
0.0
 20
0.0
 30
0.0
  9
$PUCSORGBOTTOM
 10
0.0
 20
0.0
 30
0.0
  9
$PUCSORGLEFT
 10
0.0
 20
0.0
 30
0.0
  9
$PUCSORGRIGHT
 10
0.0
 20
0.0
 30
0.0
  9
$PUCSORGFRONT
 10
0.0
 20
0.0
 30
0.0
  9
$PUCSORGBACK
 10
0.0
 20
0.0
 30
0.0
  9
$USERI1
 70
     0
  9
$USERI2
 70
     0
  9
$USERI3
 70
     0
  9
$USERI4
 70
     0
  9
$USERI5
 70
     0
  9
$USERR1
 40
0.0
  9
$USERR2
 40
0.0
  9
$USERR3
 40
0.0
  9
$USERR4
 40
0.0
  9
$USERR5
 40
0.0
  9
$WORLDVIEW
 70
     1
  9
$SHADEDGE
 70
     3
  9
$SHADEDIF
 70
    70
  9
$TILEMODE
 70
     0
  9
$MAXACTVP
 70
    64
  9
$PINSBASE
 10
0.0
 20
0.0
 30
0.0
  9
$PLIMCHECK
 70
     0
  9
$PEXTMIN
 10
0.0
 20
0.0
 30
0.0
  9
$PEXTMAX
 10
431.8
 20
279.4
 30
0.0
  9
$PLIMMIN
 10
0.0
 20
0.0
  9
$PLIMMAX
 10
431.8
 20
279.4
  9
$UNITMODE
 70
     0
  9
$VISRETAIN
 70
     1
  9
$PLINEGEN
 70
     0
  9
$PSLTSCALE
 70
     1
  9
$TREEDEPTH
 70
  3020
  9
$CMLSTYLE
  2
Standard
  9
$CMLJUST
 70
     0
  9
$CMLSCALE
 40
20.0
  9
$PROXYGRAPHICS
 70
     1
  9
$MEASUREMENT
 70
     1
  9
$CELWEIGHT
370
    -1
  9
$ENDCAPS
280
     0
  9
$JOINSTYLE
280
     0
  9
$LWDISPLAY
290
     1
  9
$INSUNITS
 70
     4
  9
$HYPERLINKBASE
  1

  9
$STYLESHEET
  1

  9
$XEDIT
290
     1
  9
$CEPSNTYPE
380
     0
  9
$PSTYLEMODE
290
     1
  9
$FINGERPRINTGUID
  2
{56DBE308-181F-4118-9BBF-D3E077C7D8DF}
  9
$VERSIONGUID
  2
{FAEB1C32-E019-11D5-929B-00C0DF256EC4}
  9
$EXTNAMES
290
     1
  9
$PSVPSCALE
 40
0.0
  9
$OLESTARTUP
290
     0
  0
ENDSEC
  0
SECTION
  2
CLASSES
  0
CLASS
  1
ACDBDICTIONARYWDFLT
  2
AcDbDictionaryWithDefault
  3
ObjectDBX Classes
 90
        0
280
     0
281
     0
  0
CLASS
  1
VISUALSTYLE
  2
AcDbVisualStyle
  3
ObjectDBX Classes
 90
     4095
280
     0
281
     0
  0
CLASS
  1
MATERIAL
  2
AcDbMaterial
  3
ObjectDBX Classes
 90
     1153
280
     0
281
     0
  0
CLASS
  1
SCALE
  2
AcDbScale
  3
ObjectDBX Classes
 90
     1153
280
     0
281
     0
  0
CLASS
  1
TABLESTYLE
  2
AcDbTableStyle
  3
ObjectDBX Classes
 90
     4095
280
     0
281
     0
  0
CLASS
  1
MLEADERSTYLE
  2
AcDbMLeaderStyle
  3
ACDB_MLEADERSTYLE_CLASS
 90
     4095
280
     0
281
     0
  0
CLASS
  1
SUN
  2
AcDbSun
  3
SCENEOE
 90
     1153
280
     0
281
     0
  0
CLASS
  1
ACDBPLACEHOLDER
  2
AcDbPlaceHolder
  3
ObjectDBX Classes
 90
        0
280
     0
281
     0
  0
CLASS
  1
LAYOUT
  2
AcDbLayout
  3
ObjectDBX Classes
 90
        0
280
     0
281
     0
  0
ENDSEC
  0
SECTION
  2
TABLES
  0
TABLE
  2
VPORT
  5
8
330
0
100
AcDbSymbolTable
 70
     1
  0
VPORT
  5
29
330
8
100
AcDbSymbolTableRecord
100
AcDbViewportTableRecord
  2
*Active
 70
     0
 10
0.0
 20
0.0
 11
1.0
 21
1.0
 12
215.9
 22
139.7
 13
0.0
 23
0.0
 14
10.0
 24
10.0
 15
10.0
 25
10.0
 16
0.0
 26
0.0
 36
1.0
 17
0.0
 27
0.0
 37
0.0
 40
279.4
 41
1.5454545455
 42
50.0
 43
0.0
 44
0.0
 50
0.0
 51
0.0
 71
     0
 72
  2000
 73
     1
 74
     3
 75
     0
 76
     0
 77
     0
 78
     0
281
     0
 65
     1
110
0.0
120
0.0
130
0.0
111
1.0
121
0.0
131
0.0
112
0.0
122
1.0
132
0.0
 79
     0
146
0.0
  0
ENDTAB
  0
TABLE
  2
LTYPE
  5
5
330
0
100
AcDbSymbolTable
 70
     6
  0
LTYPE
  5
14
330
5
100
AcDbSymbolTableRecord
100
AcDbLinetypeTableRecord
  2
ByBlock
 70
     0
  3

 72
    65
 73
     0
 40
0.0
  0
LTYPE
  5
15
330
5
100
AcDbSymbolTableRecord
100
AcDbLinetypeTableRecord
  2
ByLayer
 70
     0
  3

 72
    65
 73
     0
 40
0.0
  0
LTYPE
  5
16
330
5
100
AcDbSymbolTableRecord
100
AcDbLinetypeTableRecord
  2
Continuous
 70
     0
  3
Solid line
 72
    65
 73
     0
 40
0.0
  0
LTYPE
  5
6E
330
5
100
AcDbSymbolTableRecord
100
AcDbLinetypeTableRecord
  2
HIDDEN
 70
     0
  3
Hidden __ __ __ __ __ __ __ __ __ __ __ __ __ __
 72
    65
 73
     2
 40
1.905
 49
1.27
 74
     0
 49
-0.635
 74
     0
  0
LTYPE
  5
6F
330
5
100
AcDbSymbolTableRecord
100
AcDbLinetypeTableRecord
  2
PHANTOM
 70
     0
  3
Phantom ______  __  __  ______  __  __  ______
 72
    65
 73
     6
 40
12.7
 49
6.35
 74
     0
 49
-1.27
 74
     0
 49
1.27
 74
     0
 49
-1.27
 74
     0
 49
1.27
 74
     0
 49
-1.27
 74
     0
  0
LTYPE
  5
70
330
5
100
AcDbSymbolTableRecord
100
AcDbLinetypeTableRecord
  2
CENTER
 70
     0
  3
Center ____ _ ____ _ ____ _ ____ _ ____ _ ____
 72
    65
 73
     4
 40
10.16
 49
6.35
 74
     0
 49
-1.27
 74
     0
 49
1.27
 74
     0
 49
-1.27
 74
     0
  0
LTYPE
  5
71
330
5
100
AcDbSymbolTableRecord
100
AcDbLinetypeTableRecord
  2
CENTERX2
 70
     0
  3
Center (2x) ________  __  ________  __  _____
 72
    65
 73
     4
 40
20.32
 49
12.7
 74
     0
 49
-2.54
 74
     0
 49
2.54
 74
     0
 49
-2.54
 74
     0
  0
LTYPE
  5
72
330
5
100
AcDbSymbolTableRecord
100
AcDbLinetypeTableRecord
  2
DOT2
 70
     0
  3
Dot (.5x) ........................................
 72
    65
 73
     2
 40
0.635
 49
0.0
 74
     0
 49
-0.635
 74
     0
  0
ENDTAB
  0
TABLE
  2
LAYER
  5
2
330
0
100
AcDbSymbolTable
 70
     2
  0
LAYER
  5
10
330
2
100
AcDbSymbolTableRecord
100
AcDbLayerTableRecord
  2
0
 70
     0
 62
     7
  6
Continuous
370
    -3
390
F
  0
LAYER
  5
73
330
2
100
AcDbSymbolTableRecord
100
AcDbLayerTableRecord
  2
FORMAT
 70
     0
 62
     7
  6
Continuous
370
    -3
390
F
  0
ENDTAB
  0
TABLE
  2
STYLE
  5
3
330
0
100
AcDbSymbolTable
 70
     6
  0
STYLE
  5
11
330
3
100
AcDbSymbolTableRecord
100
AcDbTextStyleTableRecord
  2
Standard
 70
     0
 40
0.0
 41
1.0
 50
0.0
 71
     0
 42
3.175
  3
txt
  4

  0
STYLE
  5
A7
330
3
100
AcDbSymbolTableRecord
100
AcDbTextStyleTableRecord
  2
SLDTEXTSTYLE0
 70
     0
 40
0.0
 41
0.75
 50
0.0
 71
     0
 42
3.175
  3
TXT
  4

  0
STYLE
  5
BA
330
3
100
AcDbSymbolTableRecord
100
AcDbTextStyleTableRecord
  2
SLDTEXTSTYLE1
 70
     0
 40
0.0
 41
0.6875
 50
0.0
 71
     0
 42
3.175
  3
TXT
  4

  0
STYLE
  5
C2
330
3
100
AcDbSymbolTableRecord
100
AcDbTextStyleTableRecord
  2
SLDTEXTSTYLE2
 70
     0
 40
0.0
 41
0.6944444444
 50
0.0
 71
     0
 42
3.175
  3
TXT
  4

  0
STYLE
  5
C7
330
3
100
AcDbSymbolTableRecord
100
AcDbTextStyleTableRecord
  2
SLDTEXTSTYLE3
 70
     0
 40
0.0
 41
0.663
 50
0.0
 71
     0
 42
3.175
  3
TXT
  4

  0
STYLE
  5
D9
330
3
100
AcDbSymbolTableRecord
100
AcDbTextStyleTableRecord
  2
SLDTEXTSTYLE4
 70
     0
 40
0.0
 41
0.7
 50
0.0
 71
     0
 42
3.175
  3
TXT
  4

  0
ENDTAB
  0
TABLE
  2
VIEW
  5
6
330
0
100
AcDbSymbolTable
 70
     0
  0
ENDTAB
  0
TABLE
  2
UCS
  5
7
330
0
100
AcDbSymbolTable
 70
     0
  0
ENDTAB
  0
TABLE
  2
APPID
  5
9
330
0
100
AcDbSymbolTable
 70
     1
  0
APPID
  5
12
330
9
100
AcDbSymbolTableRecord
100
AcDbRegAppTableRecord
  2
ACAD
 70
     0
  0
ENDTAB
  0
TABLE
  2
DIMSTYLE
  5
A
330
0
100
AcDbSymbolTable
 70
     8
100
AcDbDimStyleTable
  0
DIMSTYLE
105
27
330
A
100
AcDbSymbolTableRecord
100
AcDbDimStyleTableRecord
  2
ISO-25
 70
     0
 41
2.5
 42
0.625
 43
3.75
 44
1.25
 73
     0
 74
     0
 77
     1
 78
     8
140
2.5
141
2.5
143
0.0393700787
147
0.625
171
     3
172
     1
178
     0
271
     2
272
     2
274
     3
278
    44
283
     0
284
     8
340
11
  0
DIMSTYLE
105
135
102
{ACAD_REACTORS
330
134
330
289
102
}
330
A
100
AcDbSymbolTableRecord
100
AcDbDimStyleTableRecord
  2
SLDDIMSTYLE0
 70
     0
 41
3.302
 44
0.0
 45
0.000000001
 78
    12
 79
     3
140
3.175
147
0.79375
173
     1
178
     0
271
     1
272
     1
276
     2
284
    12
340
A7
  0
DIMSTYLE
105
142
102
{ACAD_REACTORS
330
141
330
295
102
}
330
A
100
AcDbSymbolTableRecord
100
AcDbDimStyleTableRecord
  2
SLDDIMSTYLE1
 70
     0
 41
3.302
 44
0.0
 45
0.000000001
 78
     4
 79
     1
140
3.175
141
0.0
147
0.79375
173
     1
178
     0
271
     2
272
     2
276
     2
284
    12
340
A7
  0
DIMSTYLE
105
150
102
{ACAD_REACTORS
330
14F
330
2A2
102
}
330
A
100
AcDbSymbolTableRecord
100
AcDbDimStyleTableRecord
  2
SLDDIMSTYLE2
 70
     0
 41
3.302
 44
0.0
 45
0.000000001
 78
    12
 79
     3
140
3.175
147
0.79375
173
     1
178
     0
271
     2
272
     2
276
     2
284
    12
340
A7
  0
DIMSTYLE
105
15F
102
{ACAD_REACTORS
330
15E
330
2B0
102
}
330
A
100
AcDbSymbolTableRecord
100
AcDbDimStyleTableRecord
  2
SLDDIMSTYLE3
 70
     0
 41
3.302
 44
0.0
 45
0.000000001
 78
    12
 79
     3
140
3.175
141
0.0
147
0.79375
173
     1
178
     0
271
     2
272
     2
276
     2
284
    12
340
A7
  0
DIMSTYLE
105
198
102
{ACAD_REACTORS
330
197
330
1B4
330
2E8
330
303
102
}
330
A
100
AcDbSymbolTableRecord
100
AcDbDimStyleTableRecord
  2
SLDDIMSTYLE4
 70
     0
 41
3.302
 44
0.0
 45
0.000000001
 78
     4
 79
     1
140
3.175
147
0.79375
173
     1
178
     0
271
     2
272
     2
276
     2
284
    12
340
A7
  0
DIMSTYLE
105
1A7
102
{ACAD_REACTORS
330
1A6
330
2F6
102
}
330
A
100
AcDbSymbolTableRecord
100
AcDbDimStyleTableRecord
  2
SLDDIMSTYLE5
 70
     0
 41
3.302
 44
0.0
 45
0.000000001
 78
     4
 79
     1
140
3.175
147
0.79375
172
     1
173
     1
178
     0
271
     3
272
     3
276
     2
284
    12
289
     0
340
A7
  0
DIMSTYLE
105
1C5
330
A
100
AcDbSymbolTableRecord
100
AcDbDimStyleTableRecord
  2
SLDDIMSTYLE6
 70
     0
 41
1.016
 44
0.0
 45
0.000000001
146
1.016
147
0.0
173
     1
178
     0
271
     0
272
     0
276
     2
340
11
341
1C6
343
1C6
344
1C6
  0
ENDTAB
  0
TABLE
  2
BLOCK_RECORD
  5
1
330
0
100
AcDbSymbolTable
 70
    24
  0
BLOCK_RECORD
  5
1F
330
1
100
AcDbSymbolTableRecord
100
AcDbBlockTableRecord
  2
*Model_Space
340
22
  0
BLOCK_RECORD
  5
1B
330
1
100
AcDbSymbolTableRecord
100
AcDbBlockTableRecord
  2
*Paper_Space
340
1E
  0
BLOCK_RECORD
  5
A4
330
1
100
AcDbSymbolTableRecord
100
AcDbBlockTableRecord
  2
SW_NOTE_0
340
0
102
{BLKREFS
331
AA
102
}
  0
BLOCK_RECORD
  5
D3
330
1
100
AcDbSymbolTableRecord
100
AcDbBlockTableRecord
  2
SW_NOTE_1
340
0
102
{BLKREFS
331
D8
102
}
  0
BLOCK_RECORD
  5
DF
330
1
100
AcDbSymbolTableRecord
100
AcDbBlockTableRecord
  2
SW_NOTE_2
340
0
102
{BLKREFS
331
E9
102
}
  0
BLOCK_RECORD
  5
136
330
1
100
AcDbSymbolTableRecord
100
AcDbBlockTableRecord
  2
_D
340
0
  0
BLOCK_RECORD
  5
143
330
1
100
AcDbSymbolTableRecord
100
AcDbBlockTableRecord
  2
_D_1
340
0
  0
BLOCK_RECORD
  5
151
330
1
100
AcDbSymbolTableRecord
100
AcDbBlockTableRecord
  2
_D_2
340
0
  0
BLOCK_RECORD
  5
160
330
1
100
AcDbSymbolTableRecord
100
AcDbBlockTableRecord
  2
_D_3
340
0
  0
BLOCK_RECORD
  5
199
330
1
100
AcDbSymbolTableRecord
100
AcDbBlockTableRecord
  2
_D_4
340
0
  0
BLOCK_RECORD
  5
1A8
330
1
100
AcDbSymbolTableRecord
100
AcDbBlockTableRecord
  2
_D_5
340
0
  0
BLOCK_RECORD
  5
1B5
330
1
100
AcDbSymbolTableRecord
100
AcDbBlockTableRecord
  2
_D_6
340
0
  0
BLOCK_RECORD
  5
1BF
330
1
100
AcDbSymbolTableRecord
100
AcDbBlockTableRecord
  2
SW_NOTE_3
340
0
102
{BLKREFS
331
1C4
102
}
  0
BLOCK_RECORD
  5
1C6
330
1
100
AcDbSymbolTableRecord
100
AcDbBlockTableRecord
  2
_Dot
340
0
  0
BLOCK_RECORD
  5
1FE
330
1
100
AcDbSymbolTableRecord
100
AcDbBlockTableRecord
  2
SW_NOTE_4
340
0
102
{BLKREFS
331
203
102
}
  0
BLOCK_RECORD
  5
229
330
1
100
AcDbSymbolTableRecord
100
AcDbBlockTableRecord
  2
SW_NOTE_5
340
0
102
{BLKREFS
331
22E
102
}
  0
BLOCK_RECORD
  5
234
330
1
100
AcDbSymbolTableRecord
100
AcDbBlockTableRecord
  2
SW_NOTE_6
340
0
102
{BLKREFS
331
23E
102
}
  0
BLOCK_RECORD
  5
28A
330
1
100
AcDbSymbolTableRecord
100
AcDbBlockTableRecord
  2
_D_7
340
0
  0
BLOCK_RECORD
  5
296
330
1
100
AcDbSymbolTableRecord
100
AcDbBlockTableRecord
  2
_D_8
340
0
  0
BLOCK_RECORD
  5
2A3
330
1
100
AcDbSymbolTableRecord
100
AcDbBlockTableRecord
  2
_D_9
340
0
  0
BLOCK_RECORD
  5
2B1
330
1
100
AcDbSymbolTableRecord
100
AcDbBlockTableRecord
  2
_D_10
340
0
  0
BLOCK_RECORD
  5
2E9
330
1
100
AcDbSymbolTableRecord
100
AcDbBlockTableRecord
  2
_D_11
340
0
  0
BLOCK_RECORD
  5
2F7
330
1
100
AcDbSymbolTableRecord
100
AcDbBlockTableRecord
  2
_D_12
340
0
  0
BLOCK_RECORD
  5
304
330
1
100
AcDbSymbolTableRecord
100
AcDbBlockTableRecord
  2
_D_13
340
0
  0
BLOCK_RECORD
  5
30E
330
1
100
AcDbSymbolTableRecord
100
AcDbBlockTableRecord
  2
SW_NOTE_7
340
0
102
{BLKREFS
331
313
102
}
  0
ENDTAB
  0
ENDSEC
  0
SECTION
  2
BLOCKS
  0
BLOCK
  5
20
330
1F
100
AcDbEntity
  8
0
100
AcDbBlockBegin
  2
*Model_Space
 70
     0
 10
0.0
 20
0.0
 30
0.0
  3
*Model_Space
  1

  0
ENDBLK
  5
21
330
1F
100
AcDbEntity
  8
0
100
AcDbBlockEnd
  0
BLOCK
  5
1C
330
1B
100
AcDbEntity
 67
     1
  8
0
100
AcDbBlockBegin
  2
*Paper_Space
 70
     0
 10
0.0
 20
0.0
 30
0.0
  3
*Paper_Space
  1

  0
ENDBLK
  5
1D
330
1B
100
AcDbEntity
 67
     1
  8
0
100
AcDbBlockEnd
  0
BLOCK
  5
A5
330
A4
100
AcDbEntity
  8
0
100
AcDbBlockBegin
  2
SW_NOTE_0
 70
     0
 10
0.0
 20
0.0
 30
0.0
  3
SW_NOTE_0
  1

  0
MTEXT
  5
A8
330
A4
100
AcDbEntity
  8
0
  6
Continuous
 62
     0
370
     0
100
AcDbMText
 10
0.0
 20
4.0927900738
 30
0.0
 40
3.175
 41
0.0
 71
     1
 72
     1
  1
Same dimensions for:
  7
SLDTEXTSTYLE0
 73
     1
 44
1.0
  0
MTEXT
  5
A9
330
A4
100
AcDbEntity
  8
0
  6
Continuous
 62
     0
370
     0
100
AcDbMText
 10
0.0
 20
-0.0822098189
 30
0.0
 40
3.175
 41
0.0
 71
     1
 72
     1
  1
LHS-005-0400-RF
  7
SLDTEXTSTYLE0
 73
     1
 44
1.0
  0
ENDBLK
  5
A6
330
A4
100
AcDbEntity
  8
0
100
AcDbBlockEnd
  0
BLOCK
  5
D4
330
D3
100
AcDbEntity
  8
0
100
AcDbBlockBegin
  2
SW_NOTE_1
 70
     0
 10
0.0
 20
0.0
 30
0.0
  3
SW_NOTE_1
  1

  0
MTEXT
  5
D6
330
D3
100
AcDbEntity
  8
0
  6
Continuous
 62
     0
370
     0
100
AcDbMText
 10
0.0
 20
1.9645392354
 30
0.0
 40
1.524
 41
0.0
 71
     1
 72
     1
  1
INTERPRET GEOMETRIC
  7
SLDTEXTSTYLE0
 73
     1
 44
1.0
  0
MTEXT
  5
D7
330
D3
100
AcDbEntity
  8
0
  6
Continuous
 62
     0
370
     0
100
AcDbMText
 10
0.0
 20
-0.5594606586
 30
0.0
 40
1.524
 41
0.0
 71
     1
 72
     1
  1
TOLERANCING PER:
  7
SLDTEXTSTYLE0
 73
     1
 44
1.0
  0
ENDBLK
  5
D5
330
D3
100
AcDbEntity
  8
0
100
AcDbBlockEnd
  0
BLOCK
  5
E0
330
DF
100
AcDbEntity
  8
0
100
AcDbBlockBegin
  2
SW_NOTE_2
 70
     0
 10
0.0
 20
0.0
 30
0.0
  3
SW_NOTE_2
  1

  0
MTEXT
  5
E2
330
DF
100
AcDbEntity
  8
0
  6
Continuous
 62
     0
370
     0
100
AcDbMText
 10
0.0
 20
1.9645392354
 30
0.0
 40
1.524
 41
0.0
 71
     1
 72
     1
  1
THE INFORMATION CONTAINED IN THIS
  7
SLDTEXTSTYLE0
 73
     1
 44
1.0
  0
MTEXT
  5
E3
330
DF
100
AcDbEntity
  8
0
  6
Continuous
 62
     0
370
     0
100
AcDbMText
 10
0.0
 20
-0.5594606586
 30
0.0
 40
1.524
 41
0.0
 71
     1
 72
     1
  1
DRAWING IS THE SOLE PROPERTY OF
  7
SLDTEXTSTYLE0
 73
     1
 44
1.0
  0
MTEXT
  5
E4
330
DF
100
AcDbEntity
  8
0
  6
Continuous
 62
     0
370
     0
100
AcDbMText
 10
0.0
 20
-3.0834605527
 30
0.0
 40
1.524
 41
0.0
 71
     1
 72
     1
  1
Roll-2-Roll Technologies LLC.  ANY
  7
SLDTEXTSTYLE0
 73
     1
 44
1.0
  0
MTEXT
  5
E5
330
DF
100
AcDbEntity
  8
0
  6
Continuous
 62
     0
370
     0
100
AcDbMText
 10
0.0
 20
-5.6074604467
 30
0.0
 40
1.524
 41
0.0
 71
     1
 72
     1
  1
REPRODUCTION IN PART OR AS A WHOLE
  7
SLDTEXTSTYLE0
 73
     1
 44
1.0
  0
MTEXT
  5
E6
330
DF
100
AcDbEntity
  8
0
  6
Continuous
 62
     0
370
     0
100
AcDbMText
 10
0.0
 20
-8.1314603407
 30
0.0
 40
1.524
 41
0.0
 71
     1
 72
     1
  1
WITHOUT THE WRITTEN PERMISSION OF
  7
SLDTEXTSTYLE0
 73
     1
 44
1.0
  0
MTEXT
  5
E7
330
DF
100
AcDbEntity
  8
0
  6
Continuous
 62
     0
370
     0
100
AcDbMText
 10
0.0
 20
-10.6554602348
 30
0.0
 40
1.524
 41
0.0
 71
     1
 72
     1
  1
Roll-2-Roll Technologies LLC IS
  7
SLDTEXTSTYLE0
 73
     1
 44
1.0
  0
MTEXT
  5
E8
330
DF
100
AcDbEntity
  8
0
  6
Continuous
 62
     0
370
     0
100
AcDbMText
 10
0.0
 20
-13.1794601288
 30
0.0
 40
1.524
 41
0.0
 71
     1
 72
     1
  1
PROHIBITED.
  7
SLDTEXTSTYLE0
 73
     1
 44
1.0
  0
ENDBLK
  5
E1
330
DF
100
AcDbEntity
  8
0
100
AcDbBlockEnd
  0
BLOCK
  5
137
330
136
100
AcDbEntity
  8
0
100
AcDbBlockBegin
  2
_D
 70
     0
 10
0.0
 20
0.0
 30
0.0
  3
_D
  1

  0
SOLID
  5
139
330
136
100
AcDbEntity
  8
0
  6
Continuous
 62
     7
370
    18
100
AcDbTrace
 10
48.9382130075
 20
165.0848340733
 30
0.0
 11
52.2402130075
 21
164.5768340733
 31
0.0
 12
52.2402130075
 22
165.5928340733
 32
0.0
 13
52.2402130075
 23
165.5928340733
 33
0.0
  0
SOLID
  5
13A
330
136
100
AcDbEntity
  8
0
  6
Continuous
 62
     7
370
    18
100
AcDbTrace
 10
105.3262130075
 20
165.0848340733
 30
0.0
 11
102.0242130075
 21
165.5928340733
 31
0.0
 12
102.0242130075
 22
164.5768340733
 32
0.0
 13
102.0242130075
 23
164.5768340733
 33
0.0
  0
LINE
  5
13B
330
136
100
AcDbEntity
  8
0
  6
Continuous
 62
     7
370
    18
100
AcDbLine
 10
48.9382130075
 20
143.7687148488
 30
0.0
 11
48.9382130075
 21
168.2598340733
 31
0.0
  0
LINE
  5
13C
330
136
100
AcDbEntity
  8
0
  6
Continuous
 62
     7
370
    18
100
AcDbLine
 10
105.3262130075
 20
143.7687148488
 30
0.0
 11
105.3262130075
 21
168.2598340733
 31
0.0
  0
LINE
  5
13D
330
136
100
AcDbEntity
  8
0
  6
Continuous
 62
     7
370
    18
100
AcDbLine
 10
48.9382130075
 20
165.0848340733
 30
0.0
 11
63.2178788012
 21
165.0848340733
 31
0.0
  0
LINE
  5
13E
330
136
100
AcDbEntity
  8
0
  6
Continuous
 62
     7
370
    18
100
AcDbLine
 10
105.3262130075
 20
165.0848340733
 30
0.0
 11
88.7589887654
 21
165.0848340733
 31
0.0
  0
MTEXT
  5
13F
330
136
100
AcDbEntity
  8
0
  6
Continuous
 62
     7
370
    18
100
AcDbMText
 10
63.2178788012
 20
166.6574681706
 30
0.0
 40
3.175
 41
0.0
 71
     1
 72
     1
  1
56.4
  7
SLDTEXTSTYLE0
 73
     1
 44
1.0
  0
MTEXT
  5
140
330
136
100
AcDbEntity
  8
0
  6
Continuous
 62
     7
370
    18
100
AcDbMText
 10
72.6194068348
 20
166.6574681706
 30
0.0
 40
3.175
 41
0.0
 71
     1
 72
     1
  1
Sq. Max
  7
SLDTEXTSTYLE0
 73
     1
 44
1.0
  0
ENDBLK
  5
138
330
136
100
AcDbEntity
  8
0
100
AcDbBlockEnd
  0
BLOCK
  5
144
330
143
100
AcDbEntity
  8
0
100
AcDbBlockBegin
  2
_D_1
 70
     0
 10
0.0
 20
0.0
 30
0.0
  3
_D_1
  1

  0
SOLID
  5
146
330
143
100
AcDbEntity
  8
0
  6
Continuous
 62
     7
370
    18
100
AcDbTrace
 10
102.6135450107
 20
143.9578297362
 30
0.0
 11
105.3840544867
 21
145.8247912365
 31
0.0
 12
104.694770823
 22
146.5712120501
 32
0.0
 13
104.694770823
 23
146.5712120501
 33
0.0
  0
LINE
  5
147
330
143
100
AcDbEntity
  8
0
  6
Continuous
 62
     7
370
    18
100
AcDbLine
 10
102.6135450107
 20
143.9578297362
 30
0.0
 11
116.0269244741
 21
156.3444395026
 31
0.0
  0
LINE
  5
148
330
143
100
AcDbEntity
  8
0
  6
Continuous
 62
     7
370
    18
100
AcDbLine
 10
116.0269244741
 20
156.3444395026
 30
0.0
 11
122.3769244741
 21
156.3444395026
 31
0.0
  0
MTEXT
  5
149
330
143
100
AcDbEntity
  8
0
  6
Continuous
 62
     7
370
    18
100
AcDbMText
 10
122.3769244741
 20
157.9330108574
 30
0.0
 40
3.175
 41
0.0
 71
     1
 72
     1
  1
4x
  7
SLDTEXTSTYLE0
 73
     1
 44
1.0
  0
MTEXT
  5
14A
330
143
100
AcDbEntity
  8
0
  6
Continuous
 62
     7
370
    18
100
AcDbMText
 10
127.9287646528
 20
157.8845039106
 30
0.0
 40
3.175
 41
0.0
 71
     1
 72
     1
  1
%%c
  7
SLDTEXTSTYLE0
 73
     1
 44
1.0
  0
MTEXT
  5
14B
330
143
100
AcDbEntity
  8
0
  6
Continuous
 62
     7
370
    18
100
AcDbMText
 10
132.7170618813
 20
157.9330108574
 30
0.0
 40
3.175
 41
0.0
 71
     1
 72
     1
  1
5.20
  7
SLDTEXTSTYLE0
 73
     1
 44
1.0
  0
MTEXT
  5
14C
330
143
100
AcDbEntity
  8
0
  6
Continuous
 62
     7
370
    18
100
AcDbMText
 10
142.1185899149
 20
157.9330108574
 30
0.0
 40
3.175
 41
0.0
 71
     1
 72
     1
  1

  7
SLDTEXTSTYLE0
 73
     1
 44
1.0
  0
MTEXT
  5
14D
330
143
100
AcDbEntity
  8
0
  6
Continuous
 62
     7
370
    18
100
AcDbMText
 10
142.1009507965
 20
157.8845039106
 30
0.0
 40
3.175
 41
0.0
 71
     1
 72
     1
  1
%%p
  7
SLDTEXTSTYLE0
 73
     1
 44
1.0
  0
MTEXT
  5
14E
330
143
100
AcDbEntity
  8
0
  6
Continuous
 62
     7
370
    18
100
AcDbMText
 10
146.3157627355
 20
157.9330108574
 30
0.0
 40
3.175
 41
0.0
 71
     1
 72
     1
  1
.25
  7
SLDTEXTSTYLE0
 73
     1
 44
1.0
  0
ENDBLK
  5
145
330
143
100
AcDbEntity
  8
0
100
AcDbBlockEnd
  0
BLOCK
  5
152
330
151
100
AcDbEntity
  8
0
100
AcDbBlockBegin
  2
_D_2
 70
     0
 10
0.0
 20
0.0
 30
0.0
  3
_D_2
  1

  0
SOLID
  5
154
330
151
100
AcDbEntity
  8
0
  6
Continuous
 62
     7
370
    18
100
AcDbTrace
 10
53.5610130075
 20
152.5483628267
 30
0.0
 11
56.8630130075
 21
152.0403628267
 31
0.0
 12
56.8630130075
 22
153.0563628267
 32
0.0
 13
56.8630130075
 23
153.0563628267
 33
0.0
  0
SOLID
  5
155
330
151
100
AcDbEntity
  8
0
  6
Continuous
 62
     7
370
    18
100
AcDbTrace
 10
100.7034130075
 20
152.5483628267
 30
0.0
 11
97.4014130075
 21
153.0563628267
 31
0.0
 12
97.4014130075
 22
152.0403628267
 32
0.0
 13
97.4014130075
 23
152.0403628267
 33
0.0
  0
LINE
  5
156
330
151
100
AcDbEntity
  8
0
  6
Continuous
 62
     7
370
    18
100
AcDbLine
 10
53.5610130075
 20
143.4639148488
 30
0.0
 11
53.5610130075
 21
155.7233628267
 31
0.0
  0
LINE
  5
157
330
151
100
AcDbEntity
  8
0
  6
Continuous
 62
     7
370
    18
100
AcDbLine
 10
100.7034130075
 20
143.4639148488
 30
0.0
 11
100.7034130075
 21
155.7233628267
 31
0.0
  0
LINE
  5
158
330
151
100
AcDbEntity
  8
0
  6
Continuous
 62
     7
370
    18
100
AcDbLine
 10
53.5610130075
 20
152.5483628267
 30
0.0
 11
67.3844460344
 21
152.5483628267
 31
0.0
  0
LINE
  5
159
330
151
100
AcDbEntity
  8
0
  6
Continuous
 62
     7
370
    18
100
AcDbLine
 10
100.7034130075
 20
152.5483628267
 30
0.0
 11
89.1764089411
 21
152.5483628267
 31
0.0
  0
MTEXT
  5
15A
330
151
100
AcDbEntity
  8
0
  6
Continuous
 62
     7
370
    18
100
AcDbMText
 10
67.3844460344
 20
154.1369341815
 30
0.0
 40
3.175
 41
0.0
 71
     1
 72
     1
  1
47.14
  7
SLDTEXTSTYLE0
 73
     1
 44
1.0
  0
MTEXT
  5
15B
330
151
100
AcDbEntity
  8
0
  6
Continuous
 62
     7
370
    18
100
AcDbMText
 10
79.1319458311
 20
154.1369341815
 30
0.0
 40
3.175
 41
0.0
 71
     1
 72
     1
  1

  7
SLDTEXTSTYLE0
 73
     1
 44
1.0
  0
MTEXT
  5
15C
330
151
100
AcDbEntity
  8
0
  6
Continuous
 62
     7
370
    18
100
AcDbMText
 10
79.1143067127
 20
154.0884272347
 30
0.0
 40
3.175
 41
0.0
 71
     1
 72
     1
  1
%%p
  7
SLDTEXTSTYLE0
 73
     1
 44
1.0
  0
MTEXT
  5
15D
330
151
100
AcDbEntity
  8
0
  6
Continuous
 62
     7
370
    18
100
AcDbMText
 10
83.329119583
 20
154.1369341815
 30
0.0
 40
3.175
 41
0.0
 71
     1
 72
     1
  1
0.2
  7
SLDTEXTSTYLE0
 73
     1
 44
1.0
  0
ENDBLK
  5
153
330
151
100
AcDbEntity
  8
0
100
AcDbBlockEnd
  0
BLOCK
  5
161
330
160
100
AcDbEntity
  8
0
100
AcDbBlockBegin
  2
_D_3
 70
     0
 10
0.0
 20
0.0
 30
0.0
  3
_D_3
  1

  0
SOLID
  5
163
330
160
100
AcDbEntity
  8
0
  6
Continuous
 62
     7
370
    18
100
AcDbTrace
 10
93.7919167415
 20
109.3315816211
 30
0.0
 11
96.428319965
 21
107.2795957433
 31
0.0
 12
96.9231872475
 22
108.1669301632
 32
0.0
 13
96.9231872475
 23
108.1669301632
 33
0.0
  0
LINE
  5
164
330
160
100
AcDbEntity
  8
0
  6
Continuous
 62
     7
370
    18
100
AcDbLine
 10
93.7919167415
 20
109.3315816211
 30
0.0
 11
111.5977844633
 21
99.4012316055
 31
0.0
  0
LINE
  5
165
330
160
100
AcDbEntity
  8
0
  6
Continuous
 62
     7
370
    18
100
AcDbLine
 10
111.5977844633
 20
99.4012316055
 30
0.0
 11
117.9477844633
 21
99.4012316055
 31
0.0
  0
MTEXT
  5
166
330
160
100
AcDbEntity
  8
0
  6
Continuous
 62
     7
370
    18
100
AcDbMText
 10
117.9477844633
 20
100.9412960135
 30
0.0
 40
3.175
 41
0.0
 71
     1
 72
     1
  1
%%c
  7
SLDTEXTSTYLE0
 73
     1
 44
1.0
  0
MTEXT
  5
167
330
160
100
AcDbEntity
  8
0
  6
Continuous
 62
     7
370
    18
100
AcDbMText
 10
122.7360812261
 20
100.9898029603
 30
0.0
 40
3.175
 41
0.0
 71
     1
 72
     1
  1
38.15
  7
SLDTEXTSTYLE0
 73
     1
 44
1.0
  0
MTEXT
  5
168
330
160
100
AcDbEntity
  8
0
  6
Continuous
 62
     7
370
    18
100
AcDbMText
 10
134.4835814885
 20
100.9898029603
 30
0.0
 40
3.175
 41
0.0
 71
     1
 72
     1
  1

  7
SLDTEXTSTYLE0
 73
     1
 44
1.0
  0
MTEXT
  5
169
330
160
100
AcDbEntity
  8
0
  6
Continuous
 62
     7
370
    18
100
AcDbMText
 10
134.4659414388
 20
100.9412960135
 30
0.0
 40
3.175
 41
0.0
 71
     1
 72
     1
  1
%%p
  7
SLDTEXTSTYLE0
 73
     1
 44
1.0
  0
MTEXT
  5
16A
330
160
100
AcDbEntity
  8
0
  6
Continuous
 62
     7
370
    18
100
AcDbMText
 10
137.4901302404
 20
100.9898029603
 30
0.0
 40
3.175
 41
0.0
 71
     1
 72
     1
  1
.05
  7
SLDTEXTSTYLE0
 73
     1
 44
1.0
  0
ENDBLK
  5
162
330
160
100
AcDbEntity
  8
0
100
AcDbBlockEnd
  0
BLOCK
  5
19A
330
199
100
AcDbEntity
  8
0
100
AcDbBlockBegin
  2
_D_4
 70
     0
 10
0.0
 20
0.0
 30
0.0
  3
_D_4
  1

  0
SOLID
  5
19C
330
199
100
AcDbEntity
  8
0
  6
Continuous
 62
     7
370
    18
100
AcDbTrace
 10
195.7357841152
 20
156.8167148488
 30
0.0
 11
199.0377841152
 21
156.3087148488
 31
0.0
 12
199.0377841152
 22
157.3247148488
 32
0.0
 13
199.0377841152
 23
157.3247148488
 33
0.0
  0
SOLID
  5
19D
330
199
100
AcDbEntity
  8
0
  6
Continuous
 62
     7
370
    18
100
AcDbTrace
 10
348.1357841152
 20
156.8167148488
 30
0.0
 11
344.8337841152
 21
157.3247148488
 31
0.0
 12
344.8337841152
 22
156.3087148488
 32
0.0
 13
344.8337841152
 23
156.3087148488
 33
0.0
  0
LINE
  5
19E
330
199
100
AcDbEntity
  8
0
  6
Continuous
 62
     7
370
    18
100
AcDbLine
 10
195.7357841152
 20
123.0537448488
 30
0.0
 11
195.7357841152
 21
159.9917148488
 31
0.0
  0
LINE
  5
19F
330
199
100
AcDbEntity
  8
0
  6
Continuous
 62
     7
370
    18
100
AcDbLine
 10
348.1357841152
 20
123.0537448488
 30
0.0
 11
348.1357841152
 21
159.9917148488
 31
0.0
  0
LINE
  5
1A0
330
199
100
AcDbEntity
  8
0
  6
Continuous
 62
     7
370
    18
100
AcDbLine
 10
195.7357841152
 20
156.8167148488
 30
0.0
 11
266.5339844141
 21
156.8167148488
 31
0.0
  0
LINE
  5
1A1
330
199
100
AcDbEntity
  8
0
  6
Continuous
 62
     7
370
    18
100
AcDbLine
 10
348.1357841152
 20
156.8167148488
 30
0.0
 11
293.0178908471
 21
156.8167148488
 31
0.0
  0
MTEXT
  5
1A2
330
199
100
AcDbEntity
  8
0
  6
Continuous
 62
     7
370
    18
100
AcDbMText
 10
266.5339844141
 20
158.4052862036
 30
0.0
 40
3.175
 41
0.0
 71
     1
 72
     1
  1
152.40
  7
SLDTEXTSTYLE0
 73
     1
 44
1.0
  0
MTEXT
  5
1A3
330
199
100
AcDbEntity
  8
0
  6
Continuous
 62
     7
370
    18
100
AcDbMText
 10
280.6274569053
 20
158.4052862036
 30
0.0
 40
3.175
 41
0.0
 71
     1
 72
     1
  1

  7
SLDTEXTSTYLE0
 73
     1
 44
1.0
  0
MTEXT
  5
1A4
330
199
100
AcDbEntity
  8
0
  6
Continuous
 62
     7
370
    18
100
AcDbMText
 10
280.6098177869
 20
158.3567792568
 30
0.0
 40
3.175
 41
0.0
 71
     1
 72
     1
  1
%%p
  7
SLDTEXTSTYLE0
 73
     1
 44
1.0
  0
MTEXT
  5
1A5
330
199
100
AcDbEntity
  8
0
  6
Continuous
 62
     7
370
    18
100
AcDbMText
 10
284.8246306572
 20
158.4052862036
 30
0.0
 40
3.175
 41
0.0
 71
     1
 72
     1
  1
0.76
  7
SLDTEXTSTYLE0
 73
     1
 44
1.0
  0
ENDBLK
  5
19B
330
199
100
AcDbEntity
  8
0
100
AcDbBlockEnd
  0
BLOCK
  5
1A9
330
1A8
100
AcDbEntity
  8
0
100
AcDbBlockBegin
  2
_D_5
 70
     0
 10
0.0
 20
0.0
 30
0.0
  3
_D_5
  1

  0
SOLID
  5
1AB
330
1A8
100
AcDbEntity
  8
0
  6
Continuous
 62
     7
370
    18
100
AcDbTrace
 10
271.5588595135
 20
87.0315629636
 30
0.0
 11
268.2568595135
 21
87.5395629636
 31
0.0
 12
268.2568595135
 22
86.5235629636
 32
0.0
 13
268.2568595135
 23
86.5235629636
 33
0.0
  0
SOLID
  5
1AC
330
1A8
100
AcDbEntity
  8
0
  6
Continuous
 62
     7
370
    18
100
AcDbTrace
 10
273.0588595135
 20
87.0315629636
 30
0.0
 11
276.3608595135
 21
86.5235629636
 31
0.0
 12
276.3608595135
 22
87.5395629636
 32
0.0
 13
276.3608595135
 23
87.5395629636
 33
0.0
  0
LINE
  5
1AD
330
1A8
100
AcDbEntity
  8
0
  6
Continuous
 62
     7
370
    18
100
AcDbLine
 10
271.5588595135
 20
98.2773148488
 30
0.0
 11
271.5588595135
 21
83.8565629636
 31
0.0
  0
LINE
  5
1AE
330
1A8
100
AcDbEntity
  8
0
  6
Continuous
 62
     7
370
    18
100
AcDbLine
 10
273.0588595135
 20
89.1587148488
 30
0.0
 11
273.0588595135
 21
83.8565629636
 31
0.0
  0
LINE
  5
1AF
330
1A8
100
AcDbEntity
  8
0
  6
Continuous
 62
     7
370
    18
100
AcDbLine
 10
271.5588595135
 20
87.0315629636
 30
0.0
 11
265.2088595135
 21
87.0315629636
 31
0.0
  0
LINE
  5
1B0
330
1A8
100
AcDbEntity
  8
0
  6
Continuous
 62
     7
370
    18
100
AcDbLine
 10
273.0588595135
 20
87.0315629636
 30
0.0
 11
298.7831132611
 21
87.0315629636
 31
0.0
  0
MTEXT
  5
1B1
330
1A8
100
AcDbEntity
  8
0
  6
Continuous
 62
     7
370
    18
100
AcDbMText
 10
298.7831132611
 20
88.6201343184
 30
0.0
 40
3.175
 41
0.0
 71
     1
 72
     1
  1
1.500
  7
SLDTEXTSTYLE0
 73
     1
 44
1.0
  0
MTEXT
  5
1B2
330
1A8
100
AcDbEntity
  8
0
  6
Continuous
 62
     7
370
    18
100
AcDbMText
 10
309.3399880579
 20
88.5716273717
 30
0.0
 40
3.175
 41
0.0
 71
     1
 72
     1
  1
%%p
  7
SLDTEXTSTYLE0
 73
     1
 44
1.0
  0
MTEXT
  5
1B3
330
1A8
100
AcDbEntity
  8
0
  6
Continuous
 62
     7
370
    18
100
AcDbMText
 10
312.3641759282
 20
88.6201343184
 30
0.0
 40
3.175
 41
0.0
 71
     1
 72
     1
  1
0.25
  7
SLDTEXTSTYLE0
 73
     1
 44
1.0
  0
ENDBLK
  5
1AA
330
1A8
100
AcDbEntity
  8
0
100
AcDbBlockEnd
  0
BLOCK
  5
1B6
330
1B5
100
AcDbEntity
  8
0
100
AcDbBlockBegin
  2
_D_6
 70
     0
 10
0.0
 20
0.0
 30
0.0
  3
_D_6
  1

  0
SOLID
  5
1B8
330
1B5
100
AcDbEntity
  8
0
  6
Continuous
 62
     7
370
    18
100
AcDbTrace
 10
183.0357841152
 20
138.3507416614
 30
0.0
 11
186.3377841152
 21
137.8427416614
 31
0.0
 12
186.3377841152
 22
138.8587416614
 32
0.0
 13
186.3377841152
 23
138.8587416614
 33
0.0
  0
SOLID
  5
1B9
330
1B5
100
AcDbEntity
  8
0
  6
Continuous
 62
     7
370
    18
100
AcDbTrace
 10
195.7357841152
 20
138.3507416614
 30
0.0
 11
192.4337841152
 21
138.8587416614
 31
0.0
 12
192.4337841152
 22
137.8427416614
 32
0.0
 13
192.4337841152
 23
137.8427416614
 33
0.0
  0
LINE
  5
1BA
330
1B5
100
AcDbEntity
  8
0
  6
Continuous
 62
     7
370
    18
100
AcDbLine
 10
183.0357841152
 20
122.8037448488
 30
0.0
 11
183.0357841152
 21
141.5257416614
 31
0.0
  0
LINE
  5
1BB
330
1B5
100
AcDbEntity
  8
0
  6
Continuous
 62
     7
370
    18
100
AcDbLine
 10
195.7357841152
 20
123.0537448488
 30
0.0
 11
195.7357841152
 21
141.5257416614
 31
0.0
  0
LINE
  5
1BC
330
1B5
100
AcDbEntity
  8
0
  6
Continuous
 62
     7
370
    18
100
AcDbLine
 10
183.0357841152
 20
138.3507416614
 30
0.0
 11
178.3142215136
 21
138.3507416614
 31
0.0
  0
LINE
  5
1BD
330
1B5
100
AcDbEntity
  8
0
  6
Continuous
 62
     7
370
    18
100
AcDbLine
 10
195.7357841152
 20
138.3507416614
 30
0.0
 11
183.0357841152
 21
138.3507416614
 31
0.0
  0
MTEXT
  5
1BE
330
1B5
100
AcDbEntity
  8
0
  6
Continuous
 62
     7
370
    18
100
AcDbMText
 10
167.7573467168
 20
139.9233757587
 30
0.0
 40
3.175
 41
0.0
 71
     1
 72
     1
  1
12.70
  7
SLDTEXTSTYLE0
 73
     1
 44
1.0
  0
ENDBLK
  5
1B7
330
1B5
100
AcDbEntity
  8
0
100
AcDbBlockEnd
  0
BLOCK
  5
1C0
330
1BF
100
AcDbEntity
  8
0
100
AcDbBlockBegin
  2
SW_NOTE_3
 70
     0
 10
0.0
 20
0.0
 30
0.0
  3
SW_NOTE_3
  1

  0
MTEXT
  5
1C2
330
1BF
100
AcDbEntity
  8
0
  6
Continuous
 62
     0
370
     0
100
AcDbMText
 10
0.5898735175
 20
1.4676578697
 30
0.0
 40
3.175
 41
0.0
 71
     1
 72
     1
  1
M6x1.0 (Metric) or
  7
SLDTEXTSTYLE0
 73
     1
 44
1.0
  0
MTEXT
  5
1C3
330
1BF
100
AcDbEntity
  8
0
  6
Continuous
 62
     0
370
     0
100
AcDbMText
 10
0.5898735175
 20
-2.707342023
 30
0.0
 40
3.175
 41
0.0
 71
     1
 72
     1
  1
#1/4-20 UNC (Standard)
  7
SLDTEXTSTYLE0
 73
     1
 44
1.0
  0
ENDBLK
  5
1C1
330
1BF
100
AcDbEntity
  8
0
100
AcDbBlockEnd
  0
BLOCK
  5
1C7
330
1C6
100
AcDbEntity
  8
0
100
AcDbBlockBegin
  2
_Dot
 70
     0
 10
0.0
 20
0.0
 30
0.0
  3
_Dot
  1

  0
LWPOLYLINE
  5
1C9
330
1C6
100
AcDbEntity
  8
0
  6
ByBlock
 62
     0
100
AcDbPolyline
 90
        2
 70
     1
 43
0.5
 10
-0.25
 20
0.0
 42
1.0
 10
0.25
 20
0.0
 42
1.0
  0
LINE
  5
1CA
330
1C6
100
AcDbEntity
  8
0
  6
ByBlock
 62
     0
370
    -2
100
AcDbLine
 10
-0.5
 20
0.0
 30
0.0
 11
-1.0
 21
0.0
 31
0.0
  0
ENDBLK
  5
1C8
330
1C6
100
AcDbEntity
  8
0
100
AcDbBlockEnd
  0
BLOCK
  5
1FF
330
1FE
100
AcDbEntity
  8
0
100
AcDbBlockBegin
  2
SW_NOTE_4
 70
     0
 10
0.0
 20
0.0
 30
0.0
  3
SW_NOTE_4
  1

  0
MTEXT
  5
201
330
1FE
100
AcDbEntity
  8
0
  6
Continuous
 62
     0
370
     0
100
AcDbMText
 10
0.0
 20
4.0927900738
 30
0.0
 40
3.175
 41
0.0
 71
     1
 72
     1
  1
Same dimensions for:
  7
SLDTEXTSTYLE0
 73
     1
 44
1.0
  0
MTEXT
  5
202
330
1FE
100
AcDbEntity
  8
0
  6
Continuous
 62
     0
370
     0
100
AcDbMText
 10
0.0
 20
-0.0822098189
 30
0.0
 40
3.175
 41
0.0
 71
     1
 72
     1
  1
LHS-005-0600-RF
  7
SLDTEXTSTYLE0
 73
     1
 44
1.0
  0
ENDBLK
  5
200
330
1FE
100
AcDbEntity
  8
0
100
AcDbBlockEnd
  0
BLOCK
  5
22A
330
229
100
AcDbEntity
  8
0
100
AcDbBlockBegin
  2
SW_NOTE_5
 70
     0
 10
0.0
 20
0.0
 30
0.0
  3
SW_NOTE_5
  1

  0
MTEXT
  5
22C
330
229
100
AcDbEntity
  8
0
  6
Continuous
 62
     0
370
     0
100
AcDbMText
 10
0.0
 20
1.9645392354
 30
0.0
 40
1.524
 41
0.0
 71
     1
 72
     1
  1
INTERPRET GEOMETRIC
  7
SLDTEXTSTYLE0
 73
     1
 44
1.0
  0
MTEXT
  5
22D
330
229
100
AcDbEntity
  8
0
  6
Continuous
 62
     0
370
     0
100
AcDbMText
 10
0.0
 20
-0.5594606586
 30
0.0
 40
1.524
 41
0.0
 71
     1
 72
     1
  1
TOLERANCING PER:
  7
SLDTEXTSTYLE0
 73
     1
 44
1.0
  0
ENDBLK
  5
22B
330
229
100
AcDbEntity
  8
0
100
AcDbBlockEnd
  0
BLOCK
  5
235
330
234
100
AcDbEntity
  8
0
100
AcDbBlockBegin
  2
SW_NOTE_6
 70
     0
 10
0.0
 20
0.0
 30
0.0
  3
SW_NOTE_6
  1

  0
MTEXT
  5
237
330
234
100
AcDbEntity
  8
0
  6
Continuous
 62
     0
370
     0
100
AcDbMText
 10
0.0
 20
1.9645392354
 30
0.0
 40
1.524
 41
0.0
 71
     1
 72
     1
  1
THE INFORMATION CONTAINED IN THIS
  7
SLDTEXTSTYLE0
 73
     1
 44
1.0
  0
MTEXT
  5
238
330
234
100
AcDbEntity
  8
0
  6
Continuous
 62
     0
370
     0
100
AcDbMText
 10
0.0
 20
-0.5594606586
 30
0.0
 40
1.524
 41
0.0
 71
     1
 72
     1
  1
DRAWING IS THE SOLE PROPERTY OF
  7
SLDTEXTSTYLE0
 73
     1
 44
1.0
  0
MTEXT
  5
239
330
234
100
AcDbEntity
  8
0
  6
Continuous
 62
     0
370
     0
100
AcDbMText
 10
0.0
 20
-3.0834605527
 30
0.0
 40
1.524
 41
0.0
 71
     1
 72
     1
  1
Roll-2-Roll Technologies LLC.  ANY
  7
SLDTEXTSTYLE0
 73
     1
 44
1.0
  0
MTEXT
  5
23A
330
234
100
AcDbEntity
  8
0
  6
Continuous
 62
     0
370
     0
100
AcDbMText
 10
0.0
 20
-5.6074604467
 30
0.0
 40
1.524
 41
0.0
 71
     1
 72
     1
  1
REPRODUCTION IN PART OR AS A WHOLE
  7
SLDTEXTSTYLE0
 73
     1
 44
1.0
  0
MTEXT
  5
23B
330
234
100
AcDbEntity
  8
0
  6
Continuous
 62
     0
370
     0
100
AcDbMText
 10
0.0
 20
-8.1314603407
 30
0.0
 40
1.524
 41
0.0
 71
     1
 72
     1
  1
WITHOUT THE WRITTEN PERMISSION OF
  7
SLDTEXTSTYLE0
 73
     1
 44
1.0
  0
MTEXT
  5
23C
330
234
100
AcDbEntity
  8
0
  6
Continuous
 62
     0
370
     0
100
AcDbMText
 10
0.0
 20
-10.6554602348
 30
0.0
 40
1.524
 41
0.0
 71
     1
 72
     1
  1
Roll-2-Roll Technologies LLC IS
  7
SLDTEXTSTYLE0
 73
     1
 44
1.0
  0
MTEXT
  5
23D
330
234
100
AcDbEntity
  8
0
  6
Continuous
 62
     0
370
     0
100
AcDbMText
 10
0.0
 20
-13.1794601288
 30
0.0
 40
1.524
 41
0.0
 71
     1
 72
     1
  1
PROHIBITED.
  7
SLDTEXTSTYLE0
 73
     1
 44
1.0
  0
ENDBLK
  5
236
330
234
100
AcDbEntity
  8
0
100
AcDbBlockEnd
  0
BLOCK
  5
28B
330
28A
100
AcDbEntity
  8
0
100
AcDbBlockBegin
  2
_D_7
 70
     0
 10
0.0
 20
0.0
 30
0.0
  3
_D_7
  1

  0
SOLID
  5
28D
330
28A
100
AcDbEntity
  8
0
  6
Continuous
 62
     7
370
    18
100
AcDbTrace
 10
48.9382130075
 20
165.0848340733
 30
0.0
 11
52.2402130075
 21
164.5768340733
 31
0.0
 12
52.2402130075
 22
165.5928340733
 32
0.0
 13
52.2402130075
 23
165.5928340733
 33
0.0
  0
SOLID
  5
28E
330
28A
100
AcDbEntity
  8
0
  6
Continuous
 62
     7
370
    18
100
AcDbTrace
 10
105.3262130075
 20
165.0848340733
 30
0.0
 11
102.0242130075
 21
165.5928340733
 31
0.0
 12
102.0242130075
 22
164.5768340733
 32
0.0
 13
102.0242130075
 23
164.5768340733
 33
0.0
  0
LINE
  5
28F
330
28A
100
AcDbEntity
  8
0
  6
Continuous
 62
     7
370
    18
100
AcDbLine
 10
48.9382130075
 20
143.7687148488
 30
0.0
 11
48.9382130075
 21
168.2598340733
 31
0.0
  0
LINE
  5
290
330
28A
100
AcDbEntity
  8
0
  6
Continuous
 62
     7
370
    18
100
AcDbLine
 10
105.3262130075
 20
143.7687148488
 30
0.0
 11
105.3262130075
 21
168.2598340733
 31
0.0
  0
LINE
  5
291
330
28A
100
AcDbEntity
  8
0
  6
Continuous
 62
     7
370
    18
100
AcDbLine
 10
48.9382130075
 20
165.0848340733
 30
0.0
 11
63.2178788012
 21
165.0848340733
 31
0.0
  0
LINE
  5
292
330
28A
100
AcDbEntity
  8
0
  6
Continuous
 62
     7
370
    18
100
AcDbLine
 10
105.3262130075
 20
165.0848340733
 30
0.0
 11
88.7589887654
 21
165.0848340733
 31
0.0
  0
MTEXT
  5
293
330
28A
100
AcDbEntity
  8
0
  6
Continuous
 62
     7
370
    18
100
AcDbMText
 10
63.2178788012
 20
166.6574681706
 30
0.0
 40
3.175
 41
0.0
 71
     1
 72
     1
  1
56.4
  7
SLDTEXTSTYLE0
 73
     1
 44
1.0
  0
MTEXT
  5
294
330
28A
100
AcDbEntity
  8
0
  6
Continuous
 62
     7
370
    18
100
AcDbMText
 10
72.6194068348
 20
166.6574681706
 30
0.0
 40
3.175
 41
0.0
 71
     1
 72
     1
  1
Sq. Max
  7
SLDTEXTSTYLE0
 73
     1
 44
1.0
  0
ENDBLK
  5
28C
330
28A
100
AcDbEntity
  8
0
100
AcDbBlockEnd
  0
BLOCK
  5
297
330
296
100
AcDbEntity
  8
0
100
AcDbBlockBegin
  2
_D_8
 70
     0
 10
0.0
 20
0.0
 30
0.0
  3
_D_8
  1

  0
SOLID
  5
299
330
296
100
AcDbEntity
  8
0
  6
Continuous
 62
     7
370
    18
100
AcDbTrace
 10
102.6135450107
 20
143.9578297362
 30
0.0
 11
105.3840544867
 21
145.8247912365
 31
0.0
 12
104.694770823
 22
146.5712120501
 32
0.0
 13
104.694770823
 23
146.5712120501
 33
0.0
  0
LINE
  5
29A
330
296
100
AcDbEntity
  8
0
  6
Continuous
 62
     7
370
    18
100
AcDbLine
 10
102.6135450107
 20
143.9578297362
 30
0.0
 11
116.0269244741
 21
156.3444395026
 31
0.0
  0
LINE
  5
29B
330
296
100
AcDbEntity
  8
0
  6
Continuous
 62
     7
370
    18
100
AcDbLine
 10
116.0269244741
 20
156.3444395026
 30
0.0
 11
122.3769244741
 21
156.3444395026
 31
0.0
  0
MTEXT
  5
29C
330
296
100
AcDbEntity
  8
0
  6
Continuous
 62
     7
370
    18
100
AcDbMText
 10
122.3769244741
 20
157.9330108574
 30
0.0
 40
3.175
 41
0.0
 71
     1
 72
     1
  1
4x
  7
SLDTEXTSTYLE0
 73
     1
 44
1.0
  0
MTEXT
  5
29D
330
296
100
AcDbEntity
  8
0
  6
Continuous
 62
     7
370
    18
100
AcDbMText
 10
127.9287646528
 20
157.8845039106
 30
0.0
 40
3.175
 41
0.0
 71
     1
 72
     1
  1
%%c
  7
SLDTEXTSTYLE0
 73
     1
 44
1.0
  0
MTEXT
  5
29E
330
296
100
AcDbEntity
  8
0
  6
Continuous
 62
     7
370
    18
100
AcDbMText
 10
132.7170618813
 20
157.9330108574
 30
0.0
 40
3.175
 41
0.0
 71
     1
 72
     1
  1
5.20
  7
SLDTEXTSTYLE0
 73
     1
 44
1.0
  0
MTEXT
  5
29F
330
296
100
AcDbEntity
  8
0
  6
Continuous
 62
     7
370
    18
100
AcDbMText
 10
142.1185899149
 20
157.9330108574
 30
0.0
 40
3.175
 41
0.0
 71
     1
 72
     1
  1

  7
SLDTEXTSTYLE0
 73
     1
 44
1.0
  0
MTEXT
  5
2A0
330
296
100
AcDbEntity
  8
0
  6
Continuous
 62
     7
370
    18
100
AcDbMText
 10
142.1009507965
 20
157.8845039106
 30
0.0
 40
3.175
 41
0.0
 71
     1
 72
     1
  1
%%p
  7
SLDTEXTSTYLE0
 73
     1
 44
1.0
  0
MTEXT
  5
2A1
330
296
100
AcDbEntity
  8
0
  6
Continuous
 62
     7
370
    18
100
AcDbMText
 10
146.3157627355
 20
157.9330108574
 30
0.0
 40
3.175
 41
0.0
 71
     1
 72
     1
  1
.25
  7
SLDTEXTSTYLE0
 73
     1
 44
1.0
  0
ENDBLK
  5
298
330
296
100
AcDbEntity
  8
0
100
AcDbBlockEnd
  0
BLOCK
  5
2A4
330
2A3
100
AcDbEntity
  8
0
100
AcDbBlockBegin
  2
_D_9
 70
     0
 10
0.0
 20
0.0
 30
0.0
  3
_D_9
  1

  0
SOLID
  5
2A6
330
2A3
100
AcDbEntity
  8
0
  6
Continuous
 62
     7
370
    18
100
AcDbTrace
 10
53.5610130075
 20
152.5483628267
 30
0.0
 11
56.8630130075
 21
152.0403628267
 31
0.0
 12
56.8630130075
 22
153.0563628267
 32
0.0
 13
56.8630130075
 23
153.0563628267
 33
0.0
  0
SOLID
  5
2A7
330
2A3
100
AcDbEntity
  8
0
  6
Continuous
 62
     7
370
    18
100
AcDbTrace
 10
100.7034130075
 20
152.5483628267
 30
0.0
 11
97.4014130075
 21
153.0563628267
 31
0.0
 12
97.4014130075
 22
152.0403628267
 32
0.0
 13
97.4014130075
 23
152.0403628267
 33
0.0
  0
LINE
  5
2A8
330
2A3
100
AcDbEntity
  8
0
  6
Continuous
 62
     7
370
    18
100
AcDbLine
 10
53.5610130075
 20
143.4639148488
 30
0.0
 11
53.5610130075
 21
155.7233628267
 31
0.0
  0
LINE
  5
2A9
330
2A3
100
AcDbEntity
  8
0
  6
Continuous
 62
     7
370
    18
100
AcDbLine
 10
100.7034130075
 20
143.4639148488
 30
0.0
 11
100.7034130075
 21
155.7233628267
 31
0.0
  0
LINE
  5
2AA
330
2A3
100
AcDbEntity
  8
0
  6
Continuous
 62
     7
370
    18
100
AcDbLine
 10
53.5610130075
 20
152.5483628267
 30
0.0
 11
67.3844460344
 21
152.5483628267
 31
0.0
  0
LINE
  5
2AB
330
2A3
100
AcDbEntity
  8
0
  6
Continuous
 62
     7
370
    18
100
AcDbLine
 10
100.7034130075
 20
152.5483628267
 30
0.0
 11
89.1764089411
 21
152.5483628267
 31
0.0
  0
MTEXT
  5
2AC
330
2A3
100
AcDbEntity
  8
0
  6
Continuous
 62
     7
370
    18
100
AcDbMText
 10
67.3844460344
 20
154.1369341815
 30
0.0
 40
3.175
 41
0.0
 71
     1
 72
     1
  1
47.14
  7
SLDTEXTSTYLE0
 73
     1
 44
1.0
  0
MTEXT
  5
2AD
330
2A3
100
AcDbEntity
  8
0
  6
Continuous
 62
     7
370
    18
100
AcDbMText
 10
79.1319458311
 20
154.1369341815
 30
0.0
 40
3.175
 41
0.0
 71
     1
 72
     1
  1

  7
SLDTEXTSTYLE0
 73
     1
 44
1.0
  0
MTEXT
  5
2AE
330
2A3
100
AcDbEntity
  8
0
  6
Continuous
 62
     7
370
    18
100
AcDbMText
 10
79.1143067127
 20
154.0884272347
 30
0.0
 40
3.175
 41
0.0
 71
     1
 72
     1
  1
%%p
  7
SLDTEXTSTYLE0
 73
     1
 44
1.0
  0
MTEXT
  5
2AF
330
2A3
100
AcDbEntity
  8
0
  6
Continuous
 62
     7
370
    18
100
AcDbMText
 10
83.329119583
 20
154.1369341815
 30
0.0
 40
3.175
 41
0.0
 71
     1
 72
     1
  1
0.2
  7
SLDTEXTSTYLE0
 73
     1
 44
1.0
  0
ENDBLK
  5
2A5
330
2A3
100
AcDbEntity
  8
0
100
AcDbBlockEnd
  0
BLOCK
  5
2B2
330
2B1
100
AcDbEntity
  8
0
100
AcDbBlockBegin
  2
_D_10
 70
     0
 10
0.0
 20
0.0
 30
0.0
  3
_D_10
  1

  0
SOLID
  5
2B4
330
2B1
100
AcDbEntity
  8
0
  6
Continuous
 62
     7
370
    18
100
AcDbTrace
 10
93.7919167415
 20
109.3315816211
 30
0.0
 11
96.428319965
 21
107.2795957433
 31
0.0
 12
96.9231872475
 22
108.1669301632
 32
0.0
 13
96.9231872475
 23
108.1669301632
 33
0.0
  0
LINE
  5
2B5
330
2B1
100
AcDbEntity
  8
0
  6
Continuous
 62
     7
370
    18
100
AcDbLine
 10
93.7919167415
 20
109.3315816211
 30
0.0
 11
111.5977844633
 21
99.4012316055
 31
0.0
  0
LINE
  5
2B6
330
2B1
100
AcDbEntity
  8
0
  6
Continuous
 62
     7
370
    18
100
AcDbLine
 10
111.5977844633
 20
99.4012316055
 30
0.0
 11
117.9477844633
 21
99.4012316055
 31
0.0
  0
MTEXT
  5
2B7
330
2B1
100
AcDbEntity
  8
0
  6
Continuous
 62
     7
370
    18
100
AcDbMText
 10
117.9477844633
 20
100.9412960135
 30
0.0
 40
3.175
 41
0.0
 71
     1
 72
     1
  1
%%c
  7
SLDTEXTSTYLE0
 73
     1
 44
1.0
  0
MTEXT
  5
2B8
330
2B1
100
AcDbEntity
  8
0
  6
Continuous
 62
     7
370
    18
100
AcDbMText
 10
122.7360812261
 20
100.9898029603
 30
0.0
 40
3.175
 41
0.0
 71
     1
 72
     1
  1
38.15
  7
SLDTEXTSTYLE0
 73
     1
 44
1.0
  0
MTEXT
  5
2B9
330
2B1
100
AcDbEntity
  8
0
  6
Continuous
 62
     7
370
    18
100
AcDbMText
 10
134.4835814885
 20
100.9898029603
 30
0.0
 40
3.175
 41
0.0
 71
     1
 72
     1
  1

  7
SLDTEXTSTYLE0
 73
     1
 44
1.0
  0
MTEXT
  5
2BA
330
2B1
100
AcDbEntity
  8
0
  6
Continuous
 62
     7
370
    18
100
AcDbMText
 10
134.4659414388
 20
100.9412960135
 30
0.0
 40
3.175
 41
0.0
 71
     1
 72
     1
  1
%%p
  7
SLDTEXTSTYLE0
 73
     1
 44
1.0
  0
MTEXT
  5
2BB
330
2B1
100
AcDbEntity
  8
0
  6
Continuous
 62
     7
370
    18
100
AcDbMText
 10
137.4901302404
 20
100.9898029603
 30
0.0
 40
3.175
 41
0.0
 71
     1
 72
     1
  1
.05
  7
SLDTEXTSTYLE0
 73
     1
 44
1.0
  0
ENDBLK
  5
2B3
330
2B1
100
AcDbEntity
  8
0
100
AcDbBlockEnd
  0
BLOCK
  5
2EA
330
2E9
100
AcDbEntity
  8
0
100
AcDbBlockBegin
  2
_D_11
 70
     0
 10
0.0
 20
0.0
 30
0.0
  3
_D_11
  1

  0
SOLID
  5
2EC
330
2E9
100
AcDbEntity
  8
0
  6
Continuous
 62
     7
370
    18
100
AcDbTrace
 10
180.8623531077
 20
156.8167148488
 30
0.0
 11
184.1643531077
 21
156.3087148488
 31
0.0
 12
184.1643531077
 22
157.3247148488
 32
0.0
 13
184.1643531077
 23
157.3247148488
 33
0.0
  0
SOLID
  5
2ED
330
2E9
100
AcDbEntity
  8
0
  6
Continuous
 62
     7
370
    18
100
AcDbTrace
 10
384.0623531077
 20
156.8167148488
 30
0.0
 11
380.7603531077
 21
157.3247148488
 31
0.0
 12
380.7603531077
 22
156.3087148488
 32
0.0
 13
380.7603531077
 23
156.3087148488
 33
0.0
  0
LINE
  5
2EE
330
2E9
100
AcDbEntity
  8
0
  6
Continuous
 62
     7
370
    18
100
AcDbLine
 10
180.8623531077
 20
123.0537448488
 30
0.0
 11
180.8623531077
 21
159.9917148488
 31
0.0
  0
LINE
  5
2EF
330
2E9
100
AcDbEntity
  8
0
  6
Continuous
 62
     7
370
    18
100
AcDbLine
 10
384.0623531077
 20
123.0537448488
 30
0.0
 11
384.0623531077
 21
159.9917148488
 31
0.0
  0
LINE
  5
2F0
330
2E9
100
AcDbEntity
  8
0
  6
Continuous
 62
     7
370
    18
100
AcDbLine
 10
180.8623531077
 20
156.8167148488
 30
0.0
 11
279.6739379118
 21
156.8167148488
 31
0.0
  0
LINE
  5
2F1
330
2E9
100
AcDbEntity
  8
0
  6
Continuous
 62
     7
370
    18
100
AcDbLine
 10
384.0623531077
 20
156.8167148488
 30
0.0
 11
306.1578443448
 21
156.8167148488
 31
0.0
  0
MTEXT
  5
2F2
330
2E9
100
AcDbEntity
  8
0
  6
Continuous
 62
     7
370
    18
100
AcDbMText
 10
279.6739379118
 20
158.4052862036
 30
0.0
 40
3.175
 41
0.0
 71
     1
 72
     1
  1
203.20
  7
SLDTEXTSTYLE0
 73
     1
 44
1.0
  0
MTEXT
  5
2F3
330
2E9
100
AcDbEntity
  8
0
  6
Continuous
 62
     7
370
    18
100
AcDbMText
 10
293.767410403
 20
158.4052862036
 30
0.0
 40
3.175
 41
0.0
 71
     1
 72
     1
  1

  7
SLDTEXTSTYLE0
 73
     1
 44
1.0
  0
MTEXT
  5
2F4
330
2E9
100
AcDbEntity
  8
0
  6
Continuous
 62
     7
370
    18
100
AcDbMText
 10
293.7497712846
 20
158.3567792568
 30
0.0
 40
3.175
 41
0.0
 71
     1
 72
     1
  1
%%p
  7
SLDTEXTSTYLE0
 73
     1
 44
1.0
  0
MTEXT
  5
2F5
330
2E9
100
AcDbEntity
  8
0
  6
Continuous
 62
     7
370
    18
100
AcDbMText
 10
297.9645841549
 20
158.4052862036
 30
0.0
 40
3.175
 41
0.0
 71
     1
 72
     1
  1
0.76
  7
SLDTEXTSTYLE0
 73
     1
 44
1.0
  0
ENDBLK
  5
2EB
330
2E9
100
AcDbEntity
  8
0
100
AcDbBlockEnd
  0
BLOCK
  5
2F8
330
2F7
100
AcDbEntity
  8
0
100
AcDbBlockBegin
  2
_D_12
 70
     0
 10
0.0
 20
0.0
 30
0.0
  3
_D_12
  1

  0
SOLID
  5
2FA
330
2F7
100
AcDbEntity
  8
0
  6
Continuous
 62
     7
370
    18
100
AcDbTrace
 10
307.4854285061
 20
87.0315629636
 30
0.0
 11
304.1834285061
 21
87.5395629636
 31
0.0
 12
304.1834285061
 22
86.5235629636
 32
0.0
 13
304.1834285061
 23
86.5235629636
 33
0.0
  0
SOLID
  5
2FB
330
2F7
100
AcDbEntity
  8
0
  6
Continuous
 62
     7
370
    18
100
AcDbTrace
 10
308.9854285061
 20
87.0315629636
 30
0.0
 11
312.2874285061
 21
86.5235629636
 31
0.0
 12
312.2874285061
 22
87.5395629636
 32
0.0
 13
312.2874285061
 23
87.5395629636
 33
0.0
  0
LINE
  5
2FC
330
2F7
100
AcDbEntity
  8
0
  6
Continuous
 62
     7
370
    18
100
AcDbLine
 10
307.4854285061
 20
98.2773148488
 30
0.0
 11
307.4854285061
 21
83.8565629636
 31
0.0
  0
LINE
  5
2FD
330
2F7
100
AcDbEntity
  8
0
  6
Continuous
 62
     7
370
    18
100
AcDbLine
 10
308.9854285061
 20
89.1587148488
 30
0.0
 11
308.9854285061
 21
83.8565629636
 31
0.0
  0
LINE
  5
2FE
330
2F7
100
AcDbEntity
  8
0
  6
Continuous
 62
     7
370
    18
100
AcDbLine
 10
307.4854285061
 20
87.0315629636
 30
0.0
 11
301.1354285061
 21
87.0315629636
 31
0.0
  0
LINE
  5
2FF
330
2F7
100
AcDbEntity
  8
0
  6
Continuous
 62
     7
370
    18
100
AcDbLine
 10
308.9854285061
 20
87.0315629636
 30
0.0
 11
334.7096822537
 21
87.0315629636
 31
0.0
  0
MTEXT
  5
300
330
2F7
100
AcDbEntity
  8
0
  6
Continuous
 62
     7
370
    18
100
AcDbMText
 10
334.7096822537
 20
88.6201343184
 30
0.0
 40
3.175
 41
0.0
 71
     1
 72
     1
  1
1.500
  7
SLDTEXTSTYLE0
 73
     1
 44
1.0
  0
MTEXT
  5
301
330
2F7
100
AcDbEntity
  8
0
  6
Continuous
 62
     7
370
    18
100
AcDbMText
 10
345.2665570504
 20
88.5716273717
 30
0.0
 40
3.175
 41
0.0
 71
     1
 72
     1
  1
%%p
  7
SLDTEXTSTYLE0
 73
     1
 44
1.0
  0
MTEXT
  5
302
330
2F7
100
AcDbEntity
  8
0
  6
Continuous
 62
     7
370
    18
100
AcDbMText
 10
348.2907449207
 20
88.6201343184
 30
0.0
 40
3.175
 41
0.0
 71
     1
 72
     1
  1
0.25
  7
SLDTEXTSTYLE0
 73
     1
 44
1.0
  0
ENDBLK
  5
2F9
330
2F7
100
AcDbEntity
  8
0
100
AcDbBlockEnd
  0
BLOCK
  5
305
330
304
100
AcDbEntity
  8
0
100
AcDbBlockBegin
  2
_D_13
 70
     0
 10
0.0
 20
0.0
 30
0.0
  3
_D_13
  1

  0
SOLID
  5
307
330
304
100
AcDbEntity
  8
0
  6
Continuous
 62
     7
370
    18
100
AcDbTrace
 10
168.1623531077
 20
136.9562815257
 30
0.0
 11
171.4643531077
 21
136.4482815257
 31
0.0
 12
171.4643531077
 22
137.4642815257
 32
0.0
 13
171.4643531077
 23
137.4642815257
 33
0.0
  0
SOLID
  5
308
330
304
100
AcDbEntity
  8
0
  6
Continuous
 62
     7
370
    18
100
AcDbTrace
 10
180.8623531077
 20
136.9562815257
 30
0.0
 11
177.5603531077
 21
137.4642815257
 31
0.0
 12
177.5603531077
 22
136.4482815257
 32
0.0
 13
177.5603531077
 23
136.4482815257
 33
0.0
  0
LINE
  5
309
330
304
100
AcDbEntity
  8
0
  6
Continuous
 62
     7
370
    18
100
AcDbLine
 10
168.1623531077
 20
122.8037448488
 30
0.0
 11
168.1623531077
 21
140.1312815257
 31
0.0
  0
LINE
  5
30A
330
304
100
AcDbEntity
  8
0
  6
Continuous
 62
     7
370
    18
100
AcDbLine
 10
180.8623531077
 20
123.0537448488
 30
0.0
 11
180.8623531077
 21
140.1312815257
 31
0.0
  0
LINE
  5
30B
330
304
100
AcDbEntity
  8
0
  6
Continuous
 62
     7
370
    18
100
AcDbLine
 10
168.1623531077
 20
136.9562815257
 30
0.0
 11
151.4407905061
 21
136.9562815257
 31
0.0
  0
LINE
  5
30C
330
304
100
AcDbEntity
  8
0
  6
Continuous
 62
     7
370
    18
100
AcDbLine
 10
180.8623531077
 20
136.9562815257
 30
0.0
 11
168.1623531077
 21
136.9562815257
 31
0.0
  0
MTEXT
  5
30D
330
304
100
AcDbEntity
  8
0
  6
Continuous
 62
     7
370
    18
100
AcDbMText
 10
140.8839157094
 20
138.528915623
 30
0.0
 40
3.175
 41
0.0
 71
     1
 72
     1
  1
12.70
  7
SLDTEXTSTYLE0
 73
     1
 44
1.0
  0
ENDBLK
  5
306
330
304
100
AcDbEntity
  8
0
100
AcDbBlockEnd
  0
BLOCK
  5
30F
330
30E
100
AcDbEntity
  8
0
100
AcDbBlockBegin
  2
SW_NOTE_7
 70
     0
 10
0.0
 20
0.0
 30
0.0
  3
SW_NOTE_7
  1

  0
MTEXT
  5
311
330
30E
100
AcDbEntity
  8
0
  6
Continuous
 62
     0
370
     0
100
AcDbMText
 10
0.5141303713
 20
1.4676578697
 30
0.0
 40
3.175
 41
0.0
 71
     1
 72
     1
  1
M6x1.0 (Metric) or
  7
SLDTEXTSTYLE0
 73
     1
 44
1.0
  0
MTEXT
  5
312
330
30E
100
AcDbEntity
  8
0
  6
Continuous
 62
     0
370
     0
100
AcDbMText
 10
0.5141303713
 20
-2.707342023
 30
0.0
 40
3.175
 41
0.0
 71
     1
 72
     1
  1
#1/4-20 UNC (Standard)
  7
SLDTEXTSTYLE0
 73
     1
 44
1.0
  0
ENDBLK
  5
310
330
30E
100
AcDbEntity
  8
0
100
AcDbBlockEnd
  0
ENDSEC
  0
SECTION
  2
ENTITIES
  0
LINE
  5
74
330
1F
100
AcDbEntity
  8
0
  6
Continuous
 62
     7
370
    18
100
AcDbLine
 10
419.1
 20
62.5944383331
 30
0.0
 11
419.1
 21
12.7
 31
0.0
  0
LINE
  5
75
330
1F
100
AcDbEntity
  8
0
  6
Continuous
 62
     7
370
    18
100
AcDbLine
 10
419.1
 20
12.7
 30
0.0
 11
179.1690166746
 21
12.7
 31
0.0
  0
LINE
  5
76
330
1F
100
AcDbEntity
  8
0
  6
Continuous
 62
     7
100
AcDbLine
 10
12.7
 20
266.7
 30
0.0
 11
12.7
 21
12.7
 31
0.0
  0
LINE
  5
77
330
1F
100
AcDbEntity
  8
0
  6
Continuous
 62
     7
100
AcDbLine
 10
12.7
 20
12.7
 30
0.0
 11
419.1
 21
12.7
 31
0.0
  0
LINE
  5
78
330
1F
100
AcDbEntity
  8
0
  6
Continuous
 62
     7
100
AcDbLine
 10
419.1
 20
12.7
 30
0.0
 11
419.1
 21
266.7
 31
0.0
  0
LINE
  5
79
330
1F
100
AcDbEntity
  8
0
  6
Continuous
 62
     7
100
AcDbLine
 10
419.1
 20
266.7
 30
0.0
 11
12.7
 21
266.7
 31
0.0
  0
LINE
  5
7A
330
1F
100
AcDbEntity
  8
0
  6
Continuous
 62
     7
100
AcDbLine
 10
215.9
 20
266.7
 30
0.0
 11
215.9
 21
276.225
 31
0.0
  0
LINE
  5
7B
330
1F
100
AcDbEntity
  8
0
  6
Continuous
 62
     7
100
AcDbLine
 10
419.1
 20
139.7
 30
0.0
 11
428.625
 21
139.7
 31
0.0
  0
LINE
  5
7C
330
1F
100
AcDbEntity
  8
0
  6
Continuous
 62
     7
100
AcDbLine
 10
215.9
 20
12.7
 30
0.0
 11
215.9
 21
3.175
 31
0.0
  0
LINE
  5
7D
330
1F
100
AcDbEntity
  8
0
  6
Continuous
 62
     7
100
AcDbLine
 10
12.7
 20
139.7
 30
0.0
 11
3.175
 21
139.7
 31
0.0
  0
LINE
  5
7E
330
1F
100
AcDbEntity
  8
0
  6
Continuous
 62
     7
370
    18
100
AcDbLine
 10
270.9737310706
 20
12.7
 30
0.0
 11
270.9737310706
 21
62.5944383331
 31
0.0
  0
LINE
  5
7F
330
1F
100
AcDbEntity
  8
0
  6
Continuous
 62
     7
370
    18
100
AcDbLine
 10
220.7541319701
 20
62.5944383331
 30
0.0
 11
419.1
 21
62.5944383331
 31
0.0
  0
LINE
  5
80
330
1F
100
AcDbEntity
  8
0
  6
Continuous
 62
     7
370
    18
100
AcDbLine
 10
305.9481386263
 20
62.5944383331
 30
0.0
 11
305.9481386263
 21
12.7
 31
0.0
  0
LINE
  5
81
330
1F
100
AcDbEntity
  8
0
  6
Continuous
 62
     7
370
    18
100
AcDbLine
 10
349.028512112
 20
62.5944383331
 30
0.0
 11
349.028512112
 21
12.7
 31
0.0
  0
LINE
  5
82
330
1F
100
AcDbEntity
  8
0
  6
Continuous
 62
     7
370
    18
100
AcDbLine
 10
349.028512112
 20
18.1073003199
 30
0.0
 11
419.1
 21
18.1073003199
 31
0.0
  0
LINE
  5
83
330
1F
100
AcDbEntity
  8
0
  6
Continuous
 62
     7
370
    18
100
AcDbLine
 10
349.028512112
 20
30.9845221033
 30
0.0
 11
419.1
 21
30.9845221033
 31
0.0
  0
LINE
  5
84
330
1F
100
AcDbEntity
  8
0
  6
Continuous
 62
     7
370
    18
100
AcDbLine
 10
349.028512112
 20
53.268808883
 30
0.0
 11
419.1
 21
53.268808883
 31
0.0
  0
LINE
  5
85
330
1F
100
AcDbEntity
  8
0
  6
Continuous
 62
     7
370
    18
100
AcDbLine
 10
359.0753486998
 20
30.9845221033
 30
0.0
 11
359.0753486998
 21
18.1073003199
 31
0.0
  0
LINE
  5
86
330
1F
100
AcDbEntity
  8
0
  6
Continuous
 62
     7
370
    18
100
AcDbLine
 10
369.9361795467
 20
18.1073003199
 30
0.0
 11
369.9361795467
 21
12.7
 31
0.0
  0
LINE
  5
87
330
1F
100
AcDbEntity
  8
0
  6
Continuous
 62
     7
370
    18
100
AcDbLine
 10
404.5728434947
 20
30.9845221033
 30
0.0
 11
404.5728434947
 21
18.1073003199
 31
0.0
  0
LINE
  5
88
330
1F
100
AcDbEntity
  8
0
  6
Continuous
 62
     7
370
    18
100
AcDbLine
 10
394.6227480427
 20
18.1073003199
 30
0.0
 11
394.6227480427
 21
12.7
 31
0.0
  0
LINE
  5
89
330
1F
100
AcDbEntity
  8
0
  6
Continuous
 62
     7
370
    18
100
AcDbLine
 10
220.7541319701
 20
17.68538066
 30
0.0
 11
305.9481386263
 21
17.68538066
 31
0.0
  0
LINE
  5
8A
330
1F
100
AcDbEntity
  8
0
  6
Continuous
 62
     7
370
    18
100
AcDbLine
 10
305.9481386263
 20
48.3069383331
 30
0.0
 11
349.028512112
 21
48.3069383331
 31
0.0
  0
LINE
  5
8B
330
1F
100
AcDbEntity
  8
0
  6
Continuous
 62
     7
370
    18
100
AcDbLine
 10
305.9481386263
 20
53.0694383331
 30
0.0
 11
349.028512112
 21
53.0694383331
 31
0.0
  0
LINE
  5
8C
330
1F
100
AcDbEntity
  8
0
  6
Continuous
 62
     7
370
    18
100
AcDbLine
 10
305.9481386263
 20
57.8319383331
 30
0.0
 11
349.028512112
 21
57.8319383331
 31
0.0
  0
LINE
  5
8D
330
1F
100
AcDbEntity
  8
0
  6
Continuous
 62
     7
370
    18
100
AcDbLine
 10
349.028512112
 20
34.0194383331
 30
0.0
 11
306.0625895844
 21
34.0194383331
 31
0.0
  0
LINE
  5
8E
330
1F
100
AcDbEntity
  8
0
  6
Continuous
 62
     7
370
    18
100
AcDbLine
 10
336.8606683857
 20
62.5944383331
 30
0.0
 11
336.8606683857
 21
34.0194383331
 31
0.0
  0
LINE
  5
8F
330
1F
100
AcDbEntity
  8
0
  6
Continuous
 62
     7
370
    18
100
AcDbLine
 10
324.9600773885
 20
62.5944383331
 30
0.0
 11
324.9600773885
 21
34.0194383331
 31
0.0
  0
LINE
  5
90
330
1F
100
AcDbEntity
  8
0
  6
Continuous
 62
     7
370
    18
100
AcDbLine
 10
270.9737310706
 20
24.4785733387
 30
0.0
 11
305.9481386263
 21
24.4785733387
 31
0.0
  0
LINE
  5
91
330
1F
100
AcDbEntity
  8
0
  6
Continuous
 62
     7
370
    18
100
AcDbLine
 10
270.9737310706
 20
31.3365733387
 30
0.0
 11
306.0625895844
 21
31.3365733387
 31
0.0
  0
LINE
  5
92
330
1F
100
AcDbEntity
  8
0
  6
Continuous
 62
     7
370
    18
100
AcDbLine
 10
220.7541319701
 20
12.7
 30
0.0
 11
220.7541319701
 21
62.5944383331
 31
0.0
  0
LINE
  5
93
330
1F
100
AcDbEntity
  8
0
  6
Continuous
 62
     7
370
    18
100
AcDbLine
 10
220.7541319701
 20
30.8444383331
 30
0.0
 11
270.9737310706
 21
30.8444383331
 31
0.0
  0
LINE
  5
94
330
1F
100
AcDbEntity
  8
0
  6
Continuous
 62
     7
370
    18
100
AcDbLine
 10
220.7541319701
 20
37.1944383331
 30
0.0
 11
270.9737310706
 21
37.1944383331
 31
0.0
  0
LINE
  5
95
330
1F
100
AcDbEntity
  8
0
  6
Continuous
 62
     7
370
    18
100
AcDbLine
 10
220.7541319701
 20
43.5444383331
 30
0.0
 11
270.9737310706
 21
43.5444383331
 31
0.0
  0
LINE
  5
96
330
1F
100
AcDbEntity
  8
0
  6
Continuous
 62
     7
370
    18
100
AcDbLine
 10
220.7541319701
 20
49.8944383331
 30
0.0
 11
270.9737310706
 21
49.8944383331
 31
0.0
  0
LINE
  5
97
330
1F
100
AcDbEntity
  8
0
  6
Continuous
 62
     7
370
    18
100
AcDbLine
 10
246.1028272634
 20
62.5944383331
 30
0.0
 11
246.1028272634
 21
17.68538066
 31
0.0
  0
LINE
  5
98
330
1F
100
AcDbEntity
  8
0
  6
Continuous
 62
     7
370
    18
100
AcDbLine
 10
305.9481386263
 20
58.6742077444
 30
0.0
 11
270.9737310706
 21
58.6742077444
 31
0.0
  0
LINE
  5
99
330
1F
100
AcDbEntity
  8
0
  6
Continuous
 62
     7
370
    18
100
AcDbLine
 10
349.028512112
 20
43.5444383331
 30
0.0
 11
305.9481386263
 21
43.5444383331
 31
0.0
  0
LINE
  5
9A
330
1F
100
AcDbEntity
  8
0
  6
Continuous
 62
     7
370
    18
100
AcDbLine
 10
349.028512112
 20
38.7819383331
 30
0.0
 11
305.9481386263
 21
38.7819383331
 31
0.0
  0
LINE
  5
9B
330
1F
100
AcDbEntity
  8
0
  6
Continuous
 62
     7
370
    18
100
AcDbLine
 10
220.7541319701
 20
56.2444383331
 30
0.0
 11
270.9737310706
 21
56.2444383331
 31
0.0
  0
LINE
  5
9C
330
1F
100
AcDbEntity
  8
0
  6
Continuous
 62
     7
370
    18
100
AcDbLine
 10
270.9737310706
 20
38.1945733387
 30
0.0
 11
306.0625895844
 21
38.1945733387
 31
0.0
  0
LINE
  5
9D
330
1F
100
AcDbEntity
  8
0
  6
Continuous
 62
     7
370
    18
100
AcDbLine
 10
220.7541319701
 20
24.4944383331
 30
0.0
 11
270.9737310706
 21
24.4944383331
 31
0.0
  0
LINE
  5
9E
330
1F
100
AcDbEntity
  8
0
  6
Continuous
 62
     7
370
    18
100
AcDbLine
 10
179.1690166746
 20
12.7
 30
0.0
 11
179.1690166746
 21
35.9244383331
 31
0.0
  0
LINE
  5
9F
330
1F
100
AcDbEntity
  8
0
  6
Continuous
 62
     7
370
    18
100
AcDbLine
 10
220.7541319701
 20
35.9244383331
 30
0.0
 11
179.1690166746
 21
35.9244383331
 31
0.0
  0
LINE
  5
A0
330
1F
100
AcDbEntity
  8
0
  6
Continuous
 62
     7
100
AcDbLine
 10
107.95
 20
12.7
 30
0.0
 11
107.95
 21
3.175
 31
0.0
  0
LINE
  5
A1
330
1F
100
AcDbEntity
  8
0
  6
Continuous
 62
     7
100
AcDbLine
 10
323.85
 20
12.7
 30
0.0
 11
323.85
 21
3.175
 31
0.0
  0
LINE
  5
A2
330
1F
100
AcDbEntity
  8
0
  6
Continuous
 62
     7
100
AcDbLine
 10
323.85
 20
266.7
 30
0.0
 11
323.85
 21
276.225
 31
0.0
  0
LINE
  5
A3
330
1F
100
AcDbEntity
  8
0
  6
Continuous
 62
     7
100
AcDbLine
 10
107.95
 20
266.7
 30
0.0
 11
107.95
 21
276.225
 31
0.0
  0
INSERT
  5
AA
330
1F
100
AcDbEntity
  8
0
  6
Continuous
 62
     7
370
     0
100
AcDbBlockReference
  2
SW_NOTE_0
 10
340.2076447775
 20
130.9304735478
 30
0.0
  0
MTEXT
  5
AB
330
1F
100
AcDbEntity
  8
0
  6
Continuous
 62
     7
370
     0
100
AcDbMText
 10
53.9136166697
 20
10.3141297083
 30
0.0
 40
6.096
 41
0.0
 71
     2
 72
     1
  1
4
  7
SLDTEXTSTYLE0
 73
     1
 44
1.0
  0
MTEXT
  5
AC
330
1F
100
AcDbEntity
  8
0
  6
Continuous
 62
     7
370
     0
100
AcDbMText
 10
6.1065833417
 20
73.7563262401
 30
0.0
 40
6.096
 41
0.0
 71
     2
 72
     1
  1
A
  7
SLDTEXTSTYLE0
 73
     1
 44
1.0
  0
MTEXT
  5
AD
330
1F
100
AcDbEntity
  8
0
  6
Continuous
 62
     7
370
     0
100
AcDbMText
 10
377.7636166697
 20
10.3141297083
 30
0.0
 40
6.096
 41
0.0
 71
     2
 72
     1
  1
1
  7
SLDTEXTSTYLE0
 73
     1
 44
1.0
  0
MTEXT
  5
AE
330
1F
100
AcDbEntity
  8
0
  6
Continuous
 62
     7
370
     0
100
AcDbMText
 10
269.8136166697
 20
10.3141297083
 30
0.0
 40
6.096
 41
0.0
 71
     2
 72
     1
  1
2
  7
SLDTEXTSTYLE0
 73
     1
 44
1.0
  0
MTEXT
  5
AF
330
1F
100
AcDbEntity
  8
0
  6
Continuous
 62
     7
370
     0
100
AcDbMText
 10
161.8636166697
 20
10.3141297083
 30
0.0
 40
6.096
 41
0.0
 71
     2
 72
     1
  1
3
  7
SLDTEXTSTYLE0
 73
     1
 44
1.0
  0
MTEXT
  5
B0
330
1F
100
AcDbEntity
  8
0
  6
Continuous
 62
     7
370
     0
100
AcDbMText
 10
6.3034332283
 20
213.4563262401
 30
0.0
 40
6.096
 41
0.0
 71
     2
 72
     1
  1
B
  7
SLDTEXTSTYLE0
 73
     1
 44
1.0
  0
MTEXT
  5
B1
330
1F
100
AcDbEntity
  8
0
  6
Continuous
 62
     7
370
     0
100
AcDbMText
 10
424.6790371829
 20
213.4563262401
 30
0.0
 40
6.096
 41
0.0
 71
     2
 72
     1
  1
B
  7
SLDTEXTSTYLE0
 73
     1
 44
1.0
  0
MTEXT
  5
B2
330
1F
100
AcDbEntity
  8
0
  6
Continuous
 62
     7
370
     0
100
AcDbMText
 10
424.4821872963
 20
73.7563262401
 30
0.0
 40
6.096
 41
0.0
 71
     2
 72
     1
  1
A
  7
SLDTEXTSTYLE0
 73
     1
 44
1.0
  0
MTEXT
  5
B3
330
1F
100
AcDbEntity
  8
0
  6
Continuous
 62
     7
370
     0
100
AcDbMText
 10
269.8136166697
 20
276.4296053685
 30
0.0
 40
6.096
 41
0.0
 71
     2
 72
     1
  1
2
  7
SLDTEXTSTYLE0
 73
     1
 44
1.0
  0
MTEXT
  5
B4
330
1F
100
AcDbEntity
  8
0
  6
Continuous
 62
     7
370
     0
100
AcDbMText
 10
377.7636166697
 20
276.4296053685
 30
0.0
 40
6.096
 41
0.0
 71
     2
 72
     1
  1
1
  7
SLDTEXTSTYLE0
 73
     1
 44
1.0
  0
MTEXT
  5
B5
330
1F
100
AcDbEntity
  8
0
  6
Continuous
 62
     7
370
     0
100
AcDbMText
 10
161.8636166697
 20
276.4296053685
 30
0.0
 40
6.096
 41
0.0
 71
     2
 72
     1
  1
3
  7
SLDTEXTSTYLE0
 73
     1
 44
1.0
  0
MTEXT
  5
B6
330
1F
100
AcDbEntity
  8
0
  6
Continuous
 62
     7
370
     0
100
AcDbMText
 10
53.9136166697
 20
276.4296053685
 30
0.0
 40
6.096
 41
0.0
 71
     2
 72
     1
  1
4
  7
SLDTEXTSTYLE0
 73
     1
 44
1.0
  0
MTEXT
  5
B7
330
1F
100
AcDbEntity
  8
0
  6
Continuous
 62
     7
370
     0
100
AcDbMText
 10
384.6774355292
 20
48.0716913567
 30
0.0
 40
6.35
 41
0.0
 71
     2
 72
     1
  1
LHS-020-0400-RF
  7
SLDTEXTSTYLE0
 73
     1
 44
1.0
  0
MTEXT
  5
B8
330
1F
100
AcDbEntity
  8
0
  6
Continuous
 62
     7
370
     0
100
AcDbMText
 10
288.453747668
 20
15.8946104384
 30
0.0
 40
1.5875
 41
0.0
 71
     2
 72
     1
  1
DO NOT SCALE DRAWING
  7
SLDTEXTSTYLE0
 73
     1
 44
1.0
  0
MTEXT
  5
B9
330
1F
100
AcDbEntity
  8
0
  6
Continuous
 62
     7
370
     0
100
AcDbMText
 10
381.9250230046
 20
26.6606855348
 30
0.0
 40
3.175
 41
0.0
 71
     2
 72
     1
  1
LHS-020-0xxx
  7
SLDTEXTSTYLE0
 73
     1
 44
1.0
  0
MTEXT
  5
BB
330
1F
100
AcDbEntity
  8
0
  6
Continuous
 62
     7
370
     0
100
AcDbMText
 10
396.9309015475
 20
16.7729098749
 30
0.0
 40
2.54
 41
0.0
 71
     1
 72
     1
  1
SHEET 1 OF 2
  7
SLDTEXTSTYLE1
 73
     1
 44
1.0
  0
MTEXT
  5
BC
330
1F
100
AcDbEntity
  8
0
  6
Continuous
 62
     7
370
     0
100
AcDbMText
 10
343.0170426927
 20
56.3768314781
 30
0.0
 40
1.905
 41
0.0
 71
     2
 72
     1
  1
3/17/17
  7
SLDTEXTSTYLE0
 73
     1
 44
1.0
  0
MTEXT
  5
BD
330
1F
100
AcDbEntity
  8
0
  6
Continuous
 62
     7
370
     0
100
AcDbMText
 10
330.9167828301
 20
56.4783538786
 30
0.0
 40
1.905
 41
0.0
 71
     2
 72
     1
  1
AS
  7
SLDTEXTSTYLE0
 73
     1
 44
1.0
  0
MTEXT
  5
BE
330
1F
100
AcDbEntity
  8
0
  6
Continuous
 62
     7
370
     0
100
AcDbMText
 10
272.1579719589
 20
61.4990449608
 30
0.0
 40
1.778
 41
0.0
 71
     1
 72
     1
  1
UNLESS OTHERWISE SPECIFIED:
  7
SLDTEXTSTYLE0
 73
     1
 44
1.0
  0
MTEXT
  5
BF
330
1F
100
AcDbEntity
  8
0
  6
Continuous
 62
     7
370
     0
100
AcDbMText
 10
351.2486489046
 20
16.7646506765
 30
0.0
 40
2.54
 41
0.0
 71
     1
 72
     1
  1
SCALE: 1:2
  7
SLDTEXTSTYLE0
 73
     1
 44
1.0
  0
MTEXT
  5
C0
330
1F
100
AcDbEntity
  8
0
  6
Continuous
 62
     7
370
     0
100
AcDbMText
 10
370.1400309829
 20
16.6777203587
 30
0.0
 40
2.54
 41
0.0
 71
     1
 72
     1
  1
WEIGHT:
  7
SLDTEXTSTYLE0
 73
     1
 44
1.0
  0
MTEXT
  5
C1
330
1F
100
AcDbEntity
  8
0
  6
Continuous
 62
     7
370
     0
100
AcDbMText
 10
408.8849098979
 20
30.2232854568
 30
0.0
 40
2.54
 41
0.0
 71
     1
 72
     1
  1
REV
  7
SLDTEXTSTYLE0
 73
     1
 44
1.0
  0
MTEXT
  5
C3
330
1F
100
AcDbEntity
  8
0
  6
Continuous
 62
     7
370
     0
100
AcDbMText
 10
359.8806642798
 20
30.3225037079
 30
0.0
 40
2.54
 41
0.0
 71
     1
 72
     1
  1
DWG.  NO.
  7
SLDTEXTSTYLE2
 73
     1
 44
1.0
  0
MTEXT
  5
C4
330
1F
100
AcDbEntity
  8
0
  6
Continuous
 62
     7
370
     0
100
AcDbMText
 10
351.2800000853
 20
26.7243788986
 30
0.0
 40
6.35
 41
0.0
 71
     1
 72
     1
  1
B
  7
SLDTEXTSTYLE0
 73
     1
 44
1.0
  0
MTEXT
  5
C5
330
1F
100
AcDbEntity
  8
0
  6
Continuous
 62
     7
370
     0
100
AcDbMText
 10
351.079592027
 20
30.3580337109
 30
0.0
 40
2.54
 41
0.0
 71
     1
 72
     1
  1
SIZE
  7
SLDTEXTSTYLE0
 73
     1
 44
1.0
  0
MTEXT
  5
C6
330
1F
100
AcDbEntity
  8
0
  6
Continuous
 62
     7
370
     0
100
AcDbMText
 10
350.1934428097
 20
52.3929595276
 30
0.0
 40
2.54
 41
0.0
 71
     1
 72
     1
  1
TITLE:
  7
SLDTEXTSTYLE0
 73
     1
 44
1.0
  0
MTEXT
  5
C8
330
1F
100
AcDbEntity
  8
0
  6
Continuous
 62
     7
370
     0
100
AcDbMText
 10
388.5818972407
 20
60.2295013632
 30
0.0
 40
3.7041666667
 41
0.0
 71
     2
 72
     1
  1
Roll-2-Roll Technologies LLC
  7
SLDTEXTSTYLE3
 73
     1
 44
1.0
  0
MTEXT
  5
C9
330
1F
100
AcDbEntity
  8
0
  6
Continuous
 62
     7
370
     0
100
AcDbMText
 10
327.8238425205
 20
60.9229910986
 30
0.0
 40
1.651
 41
0.0
 71
     1
 72
     1
  1
NAME
  7
SLDTEXTSTYLE0
 73
     1
 44
1.0
  0
MTEXT
  5
CA
330
1F
100
AcDbEntity
  8
0
  6
Continuous
 62
     7
370
     0
100
AcDbMText
 10
340.3148912103
 20
60.8788912243
 30
0.0
 40
1.651
 41
0.0
 71
     1
 72
     1
  1
DATE
  7
SLDTEXTSTYLE0
 73
     1
 44
1.0
  0
MTEXT
  5
CB
330
1F
100
AcDbEntity
  8
0
  6
Continuous
 62
     7
370
     0
100
AcDbMText
 10
307.2838076531
 20
32.9087008505
 30
0.0
 40
1.651
 41
0.0
 71
     1
 72
     1
  1
COMMENTS:
  7
SLDTEXTSTYLE0
 73
     1
 44
1.0
  0
MTEXT
  5
CC
330
1F
100
AcDbEntity
  8
0
  6
Continuous
 62
     7
370
     0
100
AcDbMText
 10
307.2616193103
 20
37.1230397293
 30
0.0
 40
1.651
 41
0.0
 71
     1
 72
     1
  1
Q.A.
  7
SLDTEXTSTYLE0
 73
     1
 44
1.0
  0
MTEXT
  5
CD
330
1F
100
AcDbEntity
  8
0
  6
Continuous
 62
     7
370
     0
100
AcDbMText
 10
307.3028766528
 20
41.8454756596
 30
0.0
 40
1.651
 41
0.0
 71
     1
 72
     1
  1
MFG APPR.
  7
SLDTEXTSTYLE0
 73
     1
 44
1.0
  0
MTEXT
  5
CE
330
1F
100
AcDbEntity
  8
0
  6
Continuous
 62
     7
370
     0
100
AcDbMText
 10
307.177189414
 20
46.6007959981
 30
0.0
 40
1.651
 41
0.0
 71
     1
 72
     1
  1
ENG APPR.
  7
SLDTEXTSTYLE0
 73
     1
 44
1.0
  0
MTEXT
  5
CF
330
1F
100
AcDbEntity
  8
0
  6
Continuous
 62
     7
370
     0
100
AcDbMText
 10
307.2506782356
 20
51.2367971468
 30
0.0
 40
1.651
 41
0.0
 71
     1
 72
     1
  1
CHECKED
  7
SLDTEXTSTYLE0
 73
     1
 44
1.0
  0
MTEXT
  5
D0
330
1F
100
AcDbEntity
  8
0
  6
Continuous
 62
     7
370
     0
100
AcDbMText
 10
307.196551863
 20
56.122746594
 30
0.0
 40
1.651
 41
0.0
 71
     1
 72
     1
  1
DRAWN
  7
SLDTEXTSTYLE0
 73
     1
 44
1.0
  0
MTEXT
  5
D1
330
1F
100
AcDbEntity
  8
0
  6
Continuous
 62
     7
370
     0
100
AcDbMText
 10
271.5497006873
 20
23.9382316328
 30
0.0
 40
1.524
 41
0.0
 71
     1
 72
     1
  1
FINISH
  7
SLDTEXTSTYLE0
 73
     1
 44
1.0
  0
MTEXT
  5
D2
330
1F
100
AcDbEntity
  8
0
  6
Continuous
 62
     7
370
     0
100
AcDbMText
 10
271.4802054458
 20
30.7530141342
 30
0.0
 40
1.524
 41
0.0
 71
     1
 72
     1
  1
MATERIAL
  7
SLDTEXTSTYLE0
 73
     1
 44
1.0
  0
INSERT
  5
D8
330
1F
100
AcDbEntity
  8
0
  6
Continuous
 62
     7
370
     0
100
AcDbBlockReference
  2
SW_NOTE_1
 10
271.6089478467
 20
34.8635605478
 30
0.0
  0
MTEXT
  5
DA
330
1F
100
AcDbEntity
  8
0
  6
Continuous
 62
     7
370
     0
100
AcDbMText
 10
271.9173361573
 20
56.2469584634
 30
0.0
 40
1.5875
 41
0.0
 71
     1
 72
     1
  1
ALL DIMENSIONS ARE IN MM
  7
SLDTEXTSTYLE4
 73
     1
 44
1.0
  0
MTEXT
  5
DB
330
1F
100
AcDbEntity
  8
0
  6
Continuous
 62
     7
370
     0
100
AcDbMText
 10
239.349610419
 20
15.9495751364
 30
0.0
 40
1.5875
 41
0.0
 71
     1
 72
     1
  1
APPLICATION
  7
SLDTEXTSTYLE0
 73
     1
 44
1.0
  0
MTEXT
  5
DC
330
1F
100
AcDbEntity
  8
0
  6
Continuous
 62
     7
370
     0
100
AcDbMText
 10
253.2540979063
 20
21.7975753227
 30
0.0
 40
1.5875
 41
0.0
 71
     1
 72
     1
  1
USED ON
  7
SLDTEXTSTYLE0
 73
     1
 44
1.0
  0
MTEXT
  5
DD
330
1F
100
AcDbEntity
  8
0
  6
Continuous
 62
     7
370
     0
100
AcDbMText
 10
227.9415038203
 20
21.7712622135
 30
0.0
 40
1.5875
 41
0.0
 71
     1
 72
     1
  1
NEXT ASSY
  7
SLDTEXTSTYLE0
 73
     1
 44
1.0
  0
MTEXT
  5
DE
330
1F
100
AcDbEntity
  8
0
  6
Continuous
 62
     7
370
     0
100
AcDbMText
 10
183.9295775012
 20
34.482890082
 30
0.0
 40
1.524
 41
0.0
 71
     1
 72
     1
  1
PROPRIETARY AND CONFIDENTIAL
  7
SLDTEXTSTYLE0
 73
     1
 44
1.0
  0
INSERT
  5
E9
330
1F
100
AcDbEntity
  8
0
  6
Continuous
 62
     7
370
     0
100
AcDbBlockReference
  2
SW_NOTE_2
 10
180.1544252483
 20
28.9376134837
 30
0.0
  0
LINE
  5
EA
330
1F
100
AcDbEntity
  8
0
  6
Continuous
 62
     7
370
    25
100
AcDbLine
 10
291.4900540288
 20
179.4903739816
 30
0.0
 11
291.4900540288
 21
179.2862719536
 31
0.0
  0
LINE
  5
EB
330
1F
100
AcDbEntity
  8
0
  6
Continuous
 62
     7
370
    25
100
AcDbLine
 10
293.5481285327
 20
175.7211960637
 30
0.0
 11
293.7248764968
 21
175.6191284636
 31
0.0
  0
LINE
  5
EC
330
1F
100
AcDbEntity
  8
0
  6
Continuous
 62
     7
370
    25
100
AcDbLine
 10
300.9483326474
 20
186.0197756463
 30
0.0
 11
292.1448532216
 21
180.9376351502
 31
0.0
  0
LINE
  5
ED
330
1F
100
AcDbEntity
  8
0
  6
Continuous
 62
     7
370
    25
100
AcDbLine
 10
295.3056263331
 20
175.4624222793
 30
0.0
 11
304.1091057588
 21
180.5445627754
 31
0.0
  0
LINE
  5
EE
330
1F
100
AcDbEntity
  8
0
  6
Continuous
 62
     7
370
    25
100
AcDbLine
 10
301.3442502145
 20
187.6182880349
 30
0.0
 11
300.6109589059
 21
185.8250139309
 31
0.0
  0
LINE
  5
EF
330
1F
100
AcDbEntity
  8
0
  6
Continuous
 62
     7
370
    25
100
AcDbLine
 10
303.7717320173
 20
180.34980106
 30
0.0
 11
305.6913740462
 21
180.0880327727
 31
0.0
  0
LINE
  5
F0
330
1F
100
AcDbEntity
  8
0
  6
Continuous
 62
     7
370
    25
100
AcDbLine
 10
405.9493440047
 20
248.4847374409
 30
0.0
 11
402.5085875485
 21
246.4984310185
 31
0.0
  0
LINE
  5
F1
330
1F
100
AcDbEntity
  8
0
  6
Continuous
 62
     7
370
    25
100
AcDbLine
 10
353.7626735056
 20
218.3580138272
 30
0.0
 11
302.1090548902
 21
188.5390145157
 31
0.0
  0
LINE
  5
F2
330
1F
100
AcDbEntity
  8
0
  6
Continuous
 62
     7
370
    25
100
AcDbLine
 10
306.8711678544
 20
180.2898991016
 30
0.0
 11
358.5247864698
 21
210.108898413
 31
0.0
  0
LINE
  5
F3
330
1F
100
AcDbEntity
  8
0
  6
Continuous
 62
     7
370
    25
100
AcDbLine
 10
407.2730228828
 20
238.2506562801
 30
0.0
 11
410.7114569689
 21
240.2356220268
 31
0.0
  0
LINE
  5
F4
330
1F
100
AcDbEntity
  8
0
  6
Continuous
 62
     7
370
    25
100
AcDbLine
 10
411.4762616446
 20
241.1563485076
 30
0.0
 11
412.3798055684
 21
243.3659777525
 31
0.0
  0
LINE
  5
F5
330
1F
100
AcDbEntity
  8
0
  6
Continuous
 62
     7
370
    25
100
AcDbLine
 10
409.4944745772
 20
248.3640591785
 30
0.0
 11
407.1291378129
 21
248.6866037698
 31
0.0
  0
LINE
  5
F6
330
1F
100
AcDbEntity
  8
0
  6
Continuous
 62
     7
370
    25
100
AcDbLine
 10
347.6674652632
 20
231.3659906734
 30
0.0
 11
346.6068050914
 21
230.7536845895
 31
0.0
  0
LINE
  5
F7
330
1F
100
AcDbEntity
  8
0
  6
Continuous
 62
     7
370
    25
100
AcDbLine
 10
365.680654884
 20
197.7132276506
 30
0.0
 11
366.7413150557
 21
198.3255337345
 31
0.0
  0
LINE
  5
F8
330
1F
100
AcDbEntity
  8
0
  6
Continuous
 62
     7
370
    25
100
AcDbLine
 10
376.2460962108
 20
181.8641547527
 30
0.0
 11
383.3171640227
 21
185.9461953118
 31
0.0
  0
LINE
  5
F9
330
1F
100
AcDbEntity
  8
0
  6
Continuous
 62
     7
370
    25
100
AcDbLine
 10
345.23375192
 20
251.9094102143
 30
0.0
 11
338.1626841081
 21
247.8273696552
 31
0.0
  0
LINE
  5
FA
330
1F
100
AcDbEntity
  8
0
  6
Continuous
 62
     7
370
    25
100
AcDbLine
 10
384.2116265601
 20
193.4230749518
 30
0.0
 11
408.4803430133
 21
207.4331067483
 31
0.0
  0
LINE
  5
FB
330
1F
100
AcDbEntity
  8
0
  6
Continuous
 62
     7
370
    25
100
AcDbLine
 10
376.4244378056
 20
262.9561261322
 30
0.0
 11
352.1555785306
 21
248.9460118864
 31
0.0
  0
LINE
  5
FC
330
1F
100
AcDbEntity
  8
0
  6
Continuous
 62
     7
370
    25
100
AcDbLine
 10
384.2116265601
 20
193.421841319
 30
0.0
 11
401.9067955327
 21
203.6370449301
 31
0.0
  0
LWPOLYLINE
  5
FD
330
1F
100
AcDbEntity
  8
0
  6
Continuous
 62
     7
370
    25
100
AcDbPolyline
 90
       21
 70
   128
 43
0.0
 10
291.4900540288
 20
179.4903739816
 10
291.5550044644
 20
180.0705789481
 10
291.7460810879
 20
180.5420743342
 10
292.0521792204
 20
180.8774585419
 10
292.4555095512
 20
181.0572402602
 10
292.9326319875
 20
181.0709712289
 10
293.4558179075
 20
180.9178534542
 10
293.9946616472
 20
180.6067855845
 10
294.5178475672
 20
180.1558457537
 10
294.9949700035
 20
179.5912409457
 10
295.3983003343
 20
178.9457839397
 10
295.7043984668
 20
178.2569863508
 10
295.8954750903
 20
177.5648785911
 10
295.9604255259
 20
176.9096834478
 10
295.8954750903
 20
176.3294784813
 10
295.7043984668
 20
175.8579830952
 10
295.3983003343
 20
175.5225988875
 10
294.9949700035
 20
175.3428171693
 10
294.5178475672
 20
175.3290862005
 10
293.9946616472
 20
175.4822039753
 10
293.7248764968
 20
175.6191284636
  0
LWPOLYLINE
  5
FE
330
1F
100
AcDbEntity
  8
0
  6
Continuous
 62
     7
370
    25
100
AcDbPolyline
 90
       26
 70
   128
 43
0.0
 10
291.4900540288
 20
179.2862719536
 10
291.5547227344
 20
179.8400690992
 10
291.7446654784
 20
180.2844042354
 10
292.0479474598
 20
180.5913581512
 10
292.4455123563
 20
180.7416438033
 10
292.9123797032
 20
180.7258181914
 10
293.4192145082
 20
180.544875697
 10
293.9341704764
 20
180.2101856025
 10
294.4248910305
 20
179.7427777173
 10
294.8605423933
 20
179.1720209979
 10
295.2137509875
 20
178.5337781881
 10
295.4623234181
 20
177.8681524309
 10
295.5906409651
 20
177.2169674407
 10
295.5906409651
 20
176.6211395652
 10
295.4623234181
 20
176.1181068612
 10
295.2137509875
 20
175.7394767235
 10
294.8605423933
 20
175.5090398762
 10
294.4248910305
 20
175.4412755138
 10
293.9341704764
 20
175.5404415205
 10
293.4192145082
 20
175.8003069314
 10
292.9123797032
 20
176.2045434469
 10
292.4455123563
 20
176.7277514002
 10
292.0479474598
 20
177.3370557113
 10
291.7446654784
 20
177.9941715494
 10
291.5547227344
 20
178.6578099098
 10
291.4900540288
 20
179.2862719536
  0
LWPOLYLINE
  5
FF
330
1F
100
AcDbEntity
  8
0
  6
Continuous
 62
     7
370
    25
100
AcDbPolyline
 90
       15
 70
   128
 43
0.0
 10
300.9483326474
 20
186.0197756463
 10
301.258988977
 20
186.1393807562
 10
301.7361114132
 20
186.153111725
 10
302.2592973332
 20
185.9999939503
 10
302.798141073
 20
185.6889260806
 10
303.321326993
 20
185.2379862498
 10
303.7984494293
 20
184.6733814418
 10
304.2017797601
 20
184.0279244358
 10
304.5078778926
 20
183.3391268469
 10
304.6989545161
 20
182.6470190872
 10
304.7639049517
 20
181.9918239439
 10
304.6989545161
 20
181.4116189774
 10
304.5078778926
 20
180.9401235913
 10
304.2017797601
 20
180.6047393836
 10
304.1091057588
 20
180.5445627754
  0
LWPOLYLINE
  5
100
330
1F
100
AcDbEntity
  8
0
  6
Continuous
 62
     7
370
    25
100
AcDbPolyline
 90
       23
 70
   128
 43
0.0
 10
301.3442502145
 20
187.6182880349
 10
301.3788583122
 20
187.6987149701
 10
301.690057594
 20
188.1913814235
 10
302.1088613723
 20
188.5389027821
 10
302.6191752527
 20
188.7279239949
 10
303.2013881588
 20
188.7511810828
 10
303.8331259754
 20
188.6077802889
 10
304.4901113723
 20
188.3032324253
 10
305.1470967692
 20
187.8492410956
 10
305.7788345858
 20
187.2632529319
 10
306.361047492
 20
186.5677871309
 10
306.8713613723
 20
185.7895700533
 10
307.2901651506
 20
184.9585081448
 10
307.6013644324
 20
184.1065386485
 10
307.793000004
 20
183.2664022745
 10
307.8577074177
 20
182.4703849924
 10
307.793000004
 20
181.7490772999
 10
307.6013644324
 20
181.1301986472
 10
307.2901651506
 20
180.6375321938
 10
306.8713613723
 20
180.2900108352
 10
306.361047492
 20
180.1009896224
 10
305.7788345858
 20
180.0777325345
 10
305.6913740462
 20
180.0880327727
  0
LWPOLYLINE
  5
101
330
1F
100
AcDbEntity
  8
0
  6
Continuous
 62
     7
370
    25
100
AcDbPolyline
 90
       18
 70
   128
 43
0.0
 10
405.9493440047
 20
248.4847374409
 10
406.4594643671
 20
248.6736469201
 10
407.0416772733
 20
248.696904008
 10
407.6734150898
 20
248.5535032141
 10
408.3304004868
 20
248.2489553504
 10
408.9873858837
 20
247.7949640207
 10
409.6191237002
 20
247.2089758571
 10
410.2013366064
 20
246.5135100561
 10
410.7116504868
 20
245.7352929785
 10
411.130454265
 20
244.9042310699
 10
411.4416535469
 20
244.0522615737
 10
411.6332891184
 20
243.2121251997
 10
411.6979965322
 20
242.4161079176
 10
411.6332891184
 20
241.6948002251
 10
411.4416535469
 20
241.0759215724
 10
411.130454265
 20
240.583255119
 10
410.7116504868
 20
240.2357337604
 10
410.7114569689
 20
240.2356220268
  0
ARC
  5
102
330
1F
100
AcDbEntity
  8
0
  6
Continuous
 62
     7
370
    25
100
AcDbCircle
 10
408.3335238198
 20
244.3619827956
 30
0.0
 40
4.167063958612734
100
AcDbArc
 50
346.1713860352
 51
73.8232374321
  0
ARC
  5
103
330
1F
100
AcDbEntity
  8
0
  6
Continuous
 62
     7
370
    25
100
AcDbCircle
 10
370.5114956225
 20
222.5309263161
 30
0.0
 40
6.635923159095991
100
AcDbArc
 50
2.6054784857
 51
57.39452166
  0
ARC
  5
104
330
1F
100
AcDbEntity
  8
0
  6
Continuous
 62
     7
370
    25
100
AcDbCircle
 10
377.5825634344
 20
226.6129668752
 30
0.0
 40
6.635923159096172
100
AcDbArc
 50
2.6054784857
 51
57.39452166
  0
LWPOLYLINE
  5
105
330
1F
100
AcDbEntity
  8
0
  6
Continuous
 62
     7
370
    25
100
AcDbPolyline
 90
       25
 70
   128
 43
0.0
 10
370.6927348533
 20
207.0591065558
 10
370.6277847869
 20
208.6233009812
 10
370.4335600922
 20
210.2474211098
 10
370.1119312593
 20
211.9158257768
 10
369.6659957496
 20
213.6124473332
 10
369.1000481658
 20
215.3209463861
 10
368.4195388927
 20
217.0248691555
 10
367.6310216064
 20
218.7078059338
 10
366.7420901595
 20
220.3535491197
 10
365.7613054477
 20
221.9462493068
 10
364.6981129641
 20
223.4705679215
 10
363.5627518333
 20
224.9118249424
 10
362.3661562038
 20
226.2561402764
 10
361.1198499456
 20
227.4905674321
 10
359.8358356693
 20
228.6032182011
 10
358.5264791341
 20
229.5833771482
 10
357.2043901595
 20
230.421604807
 10
355.8823011848
 20
231.1098285869
 10
354.5729446497
 20
231.6414205167
 10
353.2889303733
 20
232.0112610755
 10
352.0426241151
 20
232.2157884966
 10
350.8460284856
 20
232.253033069
 10
349.7106673549
 20
232.1226361073
 10
348.6474748712
 20
231.8258534053
 10
347.6674652632
 20
231.3659906734
  0
LWPOLYLINE
  5
106
330
1F
100
AcDbEntity
  8
0
  6
Continuous
 62
     7
370
    25
100
AcDbPolyline
 90
       10
 70
   128
 43
0.0
 10
366.7413150557
 20
198.3255337345
 10
366.7420901595
 20
198.3259812651
 10
367.6310216064
 20
198.9453860486
 10
368.4195388927
 20
199.7179201466
 10
369.1000481658
 20
200.6361436333
 10
369.6659957496
 20
201.6912135146
 10
370.1119312593
 20
202.8729688908
 10
370.4335600922
 20
204.1700288116
 10
370.6277847869
 20
205.5699018809
 10
370.6927348533
 20
207.0591065558
  0
ARC
  5
107
330
1F
100
AcDbEntity
  8
0
  6
Continuous
 62
     7
370
    25
100
AcDbCircle
 10
339.1296006893
 20
246.1523414171
 30
0.0
 40
1.885710314496101
100
AcDbArc
 50
50.7967147643
 51
189.2140369905
  0
LINE
  5
108
330
1F
100
AcDbEntity
  8
0
  6
Continuous
 62
     7
370
    25
100
AcDbLine
 10
374.0872716671
 20
228.1210338153
 30
0.0
 11
340.3215086519
 21
247.6135938932
 31
0.0
  0
LINE
  5
109
330
1F
100
AcDbEntity
  8
0
  6
Continuous
 62
     7
370
    25
100
AcDbLine
 10
377.1405587483
 20
183.841128627
 30
0.0
 11
377.1405587483
 21
222.8325854762
 31
0.0
  0
ARC
  5
10A
330
1F
100
AcDbEntity
  8
0
  6
Continuous
 62
     7
370
    25
100
AcDbCircle
 10
375.2791796297
 20
183.5391829908
 30
0.0
 40
1.885710314496153
100
AcDbArc
 50
230.7967147643
 51
9.2140369905
  0
LINE
  5
10B
330
1F
100
AcDbEntity
  8
0
  6
Continuous
 62
     7
370
    25
100
AcDbLine
 10
342.0278681866
 20
200.5854302008
 30
0.0
 11
374.0872716671
 21
182.0779305147
 31
0.0
  0
LINE
  5
10C
330
1F
100
AcDbEntity
  8
0
  6
Continuous
 62
     7
370
    25
100
AcDbLine
 10
337.2682215707
 20
245.8503957809
 30
0.0
 11
337.2682215707
 21
208.8359694076
 31
0.0
  0
LWPOLYLINE
  5
10D
330
1F
100
AcDbEntity
  8
0
  6
Continuous
 62
     7
370
    25
100
AcDbPolyline
 90
       24
 70
   128
 43
0.0
 10
342.3755124299
 20
242.6531378864
 10
342.3073366921
 20
243.2652750959
 10
342.1078657616
 20
243.9107269202
 10
341.7918934846
 20
244.5416231503
 10
341.3828540795
 20
245.1111730988
 10
340.9110841277
 20
245.5771358517
 10
340.4115726483
 20
245.9049530832
 10
339.9213661227
 20
246.0703120889
 10
339.4768209263
 20
246.0609489478
 10
339.1109069426
 20
245.8775580813
 10
338.850762338
 20
245.5337407509
 10
338.7156808476
 20
245.0549963153
 10
338.7156808476
 20
244.476831059
 10
338.850762338
 20
243.8421248543
 10
339.1109069426
 20
243.1979509566
 10
339.4768209263
 20
242.5920847972
 10
339.9213661227
 20
242.0694606975
 10
340.4115726483
 20
241.6688392959
 10
340.9110841277
 20
241.4199328492
 10
341.3828540795
 20
241.3412016099
 10
341.7918934846
 20
241.4384847138
 10
342.1078657616
 20
241.7045671181
 10
342.3073366921
 20
242.1197147082
 10
342.3755124299
 20
242.6531378864
  0
LWPOLYLINE
  5
10E
330
1F
100
AcDbEntity
  8
0
  6
Continuous
 62
     7
370
    25
100
AcDbPolyline
 90
       24
 70
   128
 43
0.0
 10
375.7102231513
 20
223.409419001
 10
375.6420474136
 20
224.0215562105
 10
375.442576483
 20
224.6670080348
 10
375.126604206
 20
225.2979042649
 10
374.7175648009
 20
225.8674542134
 10
374.2457948491
 20
226.3334169663
 10
373.7462833697
 20
226.6612341978
 10
373.2560768441
 20
226.8265932035
 10
372.8115316477
 20
226.8172300624
 10
372.445617664
 20
226.6338391959
 10
372.1854730594
 20
226.2900218655
 10
372.050391569
 20
225.8112774299
 10
372.050391569
 20
225.2331121736
 10
372.1854730594
 20
224.5984059689
 10
372.445617664
 20
223.9542320713
 10
372.8115316477
 20
223.3483659119
 10
373.2560768441
 20
222.8257418121
 10
373.7462833697
 20
222.4251204105
 10
374.2457948491
 20
222.1762139638
 10
374.7175648009
 20
222.0974827245
 10
375.126604206
 20
222.1947658284
 10
375.442576483
 20
222.4608482327
 10
375.6420474136
 20
222.8759958228
 10
375.7102231513
 20
223.409419001
  0
LWPOLYLINE
  5
10F
330
1F
100
AcDbEntity
  8
0
  6
Continuous
 62
     7
370
    25
100
AcDbPolyline
 90
       24
 70
   128
 43
0.0
 10
375.7102231513
 20
184.9157254307
 10
375.6420474136
 20
185.5278626403
 10
375.442576483
 20
186.1733144646
 10
375.126604206
 20
186.8042106946
 10
374.7175648009
 20
187.3737606432
 10
374.2457948491
 20
187.8397233961
 10
373.7462833697
 20
188.1675406276
 10
373.2560768441
 20
188.3328996333
 10
372.8115316477
 20
188.3235364922
 10
372.445617664
 20
188.1401456257
 10
372.1854730594
 20
187.7963282953
 10
372.050391569
 20
187.3175838596
 10
372.050391569
 20
186.7394186034
 10
372.1854730594
 20
186.1047123986
 10
372.445617664
 20
185.460538501
 10
372.8115316477
 20
184.8546723416
 10
373.2560768441
 20
184.3320482418
 10
373.7462833697
 20
183.9314268403
 10
374.2457948491
 20
183.6825203936
 10
374.7175648009
 20
183.6037891543
 10
375.126604206
 20
183.7010722582
 10
375.442576483
 20
183.9671546625
 10
375.6420474136
 20
184.3823022525
 10
375.7102231513
 20
184.9157254307
  0
LINE
  5
110
330
1F
100
AcDbEntity
  8
0
  6
Continuous
 62
     7
370
    25
100
AcDbLine
 10
384.2116265601
 20
194.4378583997
 30
0.0
 11
384.2116265601
 21
187.9231691861
 31
0.0
  0
LINE
  5
111
330
1F
100
AcDbEntity
  8
0
  6
Continuous
 62
     7
370
    25
100
AcDbLine
 10
384.2116265601
 20
226.9146260353
 30
0.0
 11
384.2116265601
 21
220.3999368217
 31
0.0
  0
LINE
  5
112
330
1F
100
AcDbEntity
  8
0
  6
Continuous
 62
     7
370
    25
100
AcDbLine
 10
409.1017852579
 20
234.7687195898
 30
0.0
 11
409.1017852579
 21
208.8066411677
 31
0.0
  0
LINE
  5
113
330
1F
100
AcDbEntity
  8
0
  6
Continuous
 62
     7
370
    25
100
AcDbLine
 10
375.5167587359
 20
235.4598896141
 30
0.0
 11
381.158339479
 21
232.2030743744
 31
0.0
  0
LINE
  5
114
330
1F
100
AcDbEntity
  8
0
  6
Continuous
 62
     7
370
    25
100
AcDbLine
 10
347.3925764637
 20
251.6956344523
 30
0.0
 11
353.0341572068
 21
248.4388192126
 31
0.0
  0
LINE
  5
115
330
1F
100
AcDbEntity
  8
0
  6
Continuous
 62
     7
370
    25
100
AcDbLine
 10
377.9243159045
 20
262.8076019807
 30
0.0
 11
400.4069174337
 21
249.8286723822
 31
0.0
  0
LWPOLYLINE
  5
116
330
1F
100
AcDbEntity
  8
0
  6
Continuous
 62
     7
370
    25
100
AcDbPolyline
 90
       39
 70
   128
 43
0.0
 10
369.6320746815
 20
206.4468004719
 10
369.5671246151
 20
208.0109948974
 10
369.3728999204
 20
209.6351150259
 10
369.0512710875
 20
211.3035196929
 10
368.6053355778
 20
213.0001412494
 10
368.0393879941
 20
214.7086403022
 10
367.3588787209
 20
216.4125630716
 10
366.5703614346
 20
218.0954998499
 10
365.6814299877
 20
219.7412430358
 10
364.700645276
 20
221.3339432229
 10
363.6374527923
 20
222.8582618376
 10
362.5020916616
 20
224.2995188585
 10
361.3054960321
 20
225.6438341926
 10
360.0591897738
 20
226.8782613482
 10
358.7751754975
 20
227.9909121172
 10
357.4658189624
 20
228.9710710643
 10
356.1437299877
 20
229.8092987231
 10
354.821641013
 20
230.497522503
 10
353.5122844779
 20
231.0291144328
 10
352.2282702015
 20
231.3989549917
 10
350.9819639433
 20
231.6034824127
 10
349.7853683138
 20
231.6407269852
 10
348.6500071831
 20
231.5103300234
 10
347.5868146994
 20
231.2135473214
 10
346.6060299877
 20
230.7532370589
 10
345.7170985408
 20
230.1338322754
 10
344.9285812545
 20
229.3612981774
 10
344.2480719813
 20
228.4430746907
 10
343.6821243976
 20
227.3880048094
 10
343.2361888879
 20
226.2062494332
 10
342.914560055
 20
224.9091895124
 10
342.7203353603
 20
223.5093164431
 10
342.6553852939
 20
222.0201117682
 10
342.7203353603
 20
220.4559173428
 10
342.914560055
 20
218.8317972142
 10
343.2361888879
 20
217.1633925472
 10
343.6821243976
 20
215.4667709908
 10
344.2480719813
 20
213.7582719379
 10
344.5262654944
 20
213.0259489785
  0
LWPOLYLINE
  5
117
330
1F
100
AcDbEntity
  8
0
  6
Continuous
 62
     7
370
    25
100
AcDbPolyline
 90
       23
 70
   128
 43
0.0
 10
349.2883784586
 20
204.7768335643
 10
349.7853683138
 20
204.1673933816
 10
350.9819639433
 20
202.8230780476
 10
352.2282702015
 20
201.5886508919
 10
353.5122844779
 20
200.4760001229
 10
354.821641013
 20
199.4958411758
 10
356.1437299877
 20
198.657613517
 10
357.4658189624
 20
197.9693897371
 10
358.7751754975
 20
197.4377978073
 10
360.0591897738
 20
197.0679572485
 10
361.3054960321
 20
196.8634298274
 10
362.5020916616
 20
196.826185255
 10
363.6374527923
 20
196.9565822168
 10
364.700645276
 20
197.2533649187
 10
365.6814299877
 20
197.7136751812
 10
366.5703614346
 20
198.3330799648
 10
367.3588787209
 20
199.1056140627
 10
368.0393879941
 20
200.0238375494
 10
368.6053355778
 20
201.0789074307
 10
369.0512710875
 20
202.2606628069
 10
369.3728999204
 20
203.5577227277
 10
369.5671246151
 20
204.957595797
 10
369.6320746815
 20
206.4468004719
  0
LWPOLYLINE
  5
118
330
1F
100
AcDbEntity
  8
0
  6
Continuous
 62
     7
370
    25
100
AcDbPolyline
 90
       13
 70
   128
 43
0.0
 10
359.5113260331
 20
212.2893843038
 10
359.4466186194
 20
213.0854015859
 10
359.2549830478
 20
213.9255379599
 10
358.943783766
 20
214.7775074562
 10
358.5249799877
 20
215.6085693647
 10
358.0146661074
 20
216.3867864424
 10
357.4324532012
 20
217.0822522434
 10
356.8007153846
 20
217.668240407
 10
356.1437299877
 20
218.1222317367
 10
355.4867445908
 20
218.4267796003
 10
354.8550067742
 20
218.5701803942
 10
354.272793868
 20
218.5469233063
 10
353.7626735056
 20
218.3580138272
  0
ARC
  5
119
330
1F
100
AcDbEntity
  8
0
  6
Continuous
 62
     7
370
    25
100
AcDbCircle
 10
357.1776919729
 20
212.0317962173
 30
0.0
 40
2.347807391845144
100
AcDbArc
 50
305.013332878
 51
6.2988475154
  0
ARC
  5
11A
330
1F
100
AcDbEntity
  8
0
  6
Continuous
 62
     7
370
    25
100
AcDbCircle
 10
410.2043182841
 20
245.4451785316
 30
0.0
 40
7.684024037860511
100
AcDbArc
 50
182.6054784857
 51
237.39452166
  0
ARC
  5
11B
330
1F
100
AcDbEntity
  8
0
  6
Continuous
 62
     7
370
    25
100
AcDbCircle
 10
404.4961369538
 20
234.559137033
 30
0.0
 40
4.610414422716052
100
AcDbArc
 50
2.6054784857
 51
57.39452166
  0
ARC
  5
11C
330
1F
100
AcDbEntity
  8
0
  6
Continuous
 62
     7
370
    25
100
AcDbCircle
 10
397.9225894732
 20
245.944855222
 30
0.0
 40
4.610414422716135
100
AcDbArc
 50
2.6054784857
 51
57.39452166
  0
LINE
  5
11D
330
1F
100
AcDbEntity
  8
0
  6
Continuous
 62
     7
370
    25
100
AcDbLine
 10
406.9804649143
 20
238.4429541932
 30
0.0
 11
406.0637716832
 21
238.9721499313
 31
0.0
  0
LINE
  5
11E
330
1F
100
AcDbEntity
  8
0
  6
Continuous
 62
     7
370
    25
100
AcDbLine
 10
402.5282377773
 20
245.0958742703
 30
0.0
 11
402.5282377773
 21
246.1544377788
 31
0.0
  0
ARC
  5
11F
330
1F
100
AcDbEntity
  8
0
  6
Continuous
 62
     7
370
    25
100
AcDbCircle
 10
382.1576163296
 20
187.6616537107
 30
0.0
 40
2.070591309463329
100
AcDbArc
 50
304.0563508323
 51
7.2558295611
  0
ARC
  5
120
330
1F
100
AcDbEntity
  8
0
  6
Continuous
 62
     7
370
    25
100
AcDbCircle
 10
346.1277476669
 20
249.9300848732
 30
0.0
 40
2.171855704624059
100
AcDbArc
 50
54.3824225248
 51
114.3071190461
  0
ARC
  5
121
330
1F
100
AcDbEntity
  8
0
  6
Continuous
 62
     7
370
    25
100
AcDbCircle
 10
407.67472859
 20
208.624949082
 30
0.0
 40
1.438576639335288
100
AcDbArc
 50
304.0563508338
 51
7.2558295596
  0
ARC
  5
122
330
1F
100
AcDbEntity
  8
0
  6
Continuous
 62
     7
370
    25
100
AcDbCircle
 10
377.04555574
 20
261.5809579933
 30
0.0
 40
1.508931707705496
100
AcDbArc
 50
54.3824225248
 51
114.3071190461
  0
LINE
  5
123
330
1F
100
AcDbEntity
  8
0
  6
Continuous
 62
     7
370
    25
100
AcDbLine
 10
401.9462933022
 20
203.66108014
 30
0.0
 11
401.9067955327
 21
203.6370449301
 31
0.0
  0
CIRCLE
  5
124
330
1F
100
AcDbEntity
  8
0
  6
Continuous
 62
     7
370
    25
100
AcDbCircle
 10
77.1322130075
 20
118.6227148488
 30
0.0
 40
3.161029999999954
  0
CIRCLE
  5
125
330
1F
100
AcDbEntity
  8
0
  6
Continuous
 62
     7
370
    25
100
AcDbCircle
 10
77.1322130075
 20
118.6227148488
 30
0.0
 40
2.911029999999954
  0
CIRCLE
  5
126
330
1F
100
AcDbEntity
  8
0
  6
Continuous
 62
     7
370
    25
100
AcDbCircle
 10
77.1322130075
 20
118.6227148488
 30
0.0
 40
4.762500000000003
  0
CIRCLE
  5
127
330
1F
100
AcDbEntity
  8
0
  6
Continuous
 62
     7
370
    25
100
AcDbCircle
 10
77.1322130075
 20
118.6227148488
 30
0.0
 40
19.0754
  0
ARC
  5
128
330
1F
100
AcDbEntity
  8
0
  6
Continuous
 62
     7
370
    25
100
AcDbCircle
 10
53.2562130075
 20
142.4987148488
 30
0.0
 40
4.317999999999991
100
AcDbArc
 50
90.0
 51
180.0
  0
LINE
  5
129
330
1F
100
AcDbEntity
  8
0
  6
Continuous
 62
     7
370
    25
100
AcDbLine
 10
101.0082130075
 20
146.8167148488
 30
0.0
 11
53.2562130075
 21
146.8167148488
 31
0.0
  0
ARC
  5
12A
330
1F
100
AcDbEntity
  8
0
  6
Continuous
 62
     7
370
    25
100
AcDbCircle
 10
101.0082130075
 20
142.4987148488
 30
0.0
 40
4.317999999999984
100
AcDbArc
 50
0.0
 51
90.0
  0
LINE
  5
12B
330
1F
100
AcDbEntity
  8
0
  6
Continuous
 62
     7
370
    25
100
AcDbLine
 10
105.3262130075
 20
94.7467148488
 30
0.0
 11
105.3262130075
 21
142.4987148488
 31
0.0
  0
ARC
  5
12C
330
1F
100
AcDbEntity
  8
0
  6
Continuous
 62
     7
370
    25
100
AcDbCircle
 10
101.0082130075
 20
94.7467148488
 30
0.0
 40
4.317999999999998
100
AcDbArc
 50
270.0
 51
0.0
  0
LINE
  5
12D
330
1F
100
AcDbEntity
  8
0
  6
Continuous
 62
     7
370
    25
100
AcDbLine
 10
53.2562130075
 20
90.4287148488
 30
0.0
 11
101.0082130075
 21
90.4287148488
 31
0.0
  0
ARC
  5
12E
330
1F
100
AcDbEntity
  8
0
  6
Continuous
 62
     7
370
    25
100
AcDbCircle
 10
53.2562130075
 20
94.7467148488
 30
0.0
 40
4.317999999999998
100
AcDbArc
 50
180.0
 51
270.0
  0
LINE
  5
12F
330
1F
100
AcDbEntity
  8
0
  6
Continuous
 62
     7
370
    25
100
AcDbLine
 10
48.9382130075
 20
142.4987148488
 30
0.0
 11
48.9382130075
 21
94.7467148488
 31
0.0
  0
CIRCLE
  5
130
330
1F
100
AcDbEntity
  8
0
  6
Continuous
 62
     7
370
    25
100
AcDbCircle
 10
53.5610130075
 20
142.1939148488
 30
0.0
 40
2.600000000000001
  0
CIRCLE
  5
131
330
1F
100
AcDbEntity
  8
0
  6
Continuous
 62
     7
370
    25
100
AcDbCircle
 10
100.7034130075
 20
95.0515148488
 30
0.0
 40
2.600000000000009
  0
CIRCLE
  5
132
330
1F
100
AcDbEntity
  8
0
  6
Continuous
 62
     7
370
    25
100
AcDbCircle
 10
53.5610130075
 20
95.0515148488
 30
0.0
 40
2.600000000000001
  0
CIRCLE
  5
133
330
1F
100
AcDbEntity
  8
0
  6
Continuous
 62
     7
370
    25
100
AcDbCircle
 10
100.7034130075
 20
142.1939148488
 30
0.0
 40
2.600000000000023
  0
DIMENSION
  5
134
330
1F
100
AcDbEntity
  8
0
  6
Continuous
 62
     7
370
    18
100
AcDbDimension
  2
_D
 10
105.3262130075
 20
165.0848340733
 30
0.0
 11
75.9884337833
 21
165.0848340733
 31
0.0
 70
   160
  1
<> Sq. Max
 71
     2
 42
-1.0
  3
SLDDIMSTYLE0
100
AcDbAlignedDimension
 13
48.9382130075
 23
142.4987148488
 33
0.0
 14
105.3262130075
 24
142.4987148488
 34
0.0
100
AcDbRotatedDimension
  0
DIMENSION
  5
141
330
1F
100
AcDbEntity
  8
0
  6
Continuous
 62
     7
370
    18
100
AcDbDimension
  2
_D_1
 10
98.7932810042
 20
140.4299999613
 30
0.0
 11
137.2699878182
 21
156.3444395026
 31
0.0
 70
   163
  1
4x <> %%p .25
 71
     1
 42
-1.0
  3
SLDDIMSTYLE1
100
AcDbDiametricDimension
 15
102.6135450107
 25
143.9578297362
 35
0.0
 40
0.0
  0
DIMENSION
  5
14F
330
1F
100
AcDbEntity
  8
0
  6
Continuous
 62
     7
370
    18
100
AcDbDimension
  2
_D_2
 10
100.7034130075
 20
152.5483628267
 30
0.0
 11
78.2804274878
 21
152.5483628267
 31
0.0
 70
   160
  1
<> %%p 0.2
 71
     2
 42
-1.0
  3
SLDDIMSTYLE2
100
AcDbAlignedDimension
 13
53.5610130075
 23
142.1939148488
 33
0.0
 14
100.7034130075
 24
142.1939148488
 34
0.0
100
AcDbRotatedDimension
  0
DIMENSION
  5
15E
330
1F
100
AcDbEntity
  8
0
  6
Continuous
 62
     7
370
    18
100
AcDbDimension
  2
_D_3
 10
60.4725092734
 20
127.9138480764
 30
0.0
 11
130.6514211244
 21
99.4012316055
 31
0.0
 70
   163
  1
<> %%p.05
 71
     1
 42
-1.0
  3
SLDDIMSTYLE3
100
AcDbDiametricDimension
 15
93.7919167415
 25
109.3315816211
 35
0.0
 40
0.0
  0
LINE
  5
16B
330
1F
100
AcDbEntity
  8
0
  6
Continuous
 62
     7
370
    25
100
AcDbLine
 10
345.3619567084
 20
123.3852148488
 30
0.0
 11
318.2588595135
 21
123.3852148488
 31
0.0
  0
LINE
  5
16C
330
1F
100
AcDbEntity
  8
0
  6
Continuous
 62
     7
370
    25
100
AcDbLine
 10
271.5588595135
 20
123.3852148488
 30
0.0
 11
198.509611522
 21
123.3852148488
 31
0.0
  0
LINE
  5
16D
330
1F
100
AcDbEntity
  8
0
  6
Continuous
 62
     7
370
    25
100
AcDbLine
 10
198.509611522
 20
113.8602148488
 30
0.0
 11
271.5588595135
 21
113.8602148488
 31
0.0
  0
LINE
  5
16E
330
1F
100
AcDbEntity
  8
0
  6
Continuous
 62
     7
370
    25
100
AcDbLine
 10
318.2588595135
 20
113.8602148488
 30
0.0
 11
345.3619567084
 21
113.8602148488
 31
0.0
  0
LINE
  5
16F
330
1F
100
AcDbEntity
  8
0
  6
Continuous
 62
     7
370
    25
100
AcDbLine
 10
198.509611522
 20
123.3852148488
 30
0.0
 11
195.7357841152
 21
121.7837448488
 31
0.0
  0
LINE
  5
170
330
1F
100
AcDbEntity
  8
0
  6
Continuous
 62
     7
370
    25
100
AcDbLine
 10
195.7357841152
 20
115.4616848488
 30
0.0
 11
198.509611522
 21
113.8602148488
 31
0.0
  0
LINE
  5
171
330
1F
100
AcDbEntity
  8
0
  6
Continuous
 62
     7
370
    25
100
AcDbLine
 10
345.3619567084
 20
113.8602148488
 30
0.0
 11
348.1357841152
 21
115.4616848488
 31
0.0
  0
LINE
  5
172
330
1F
100
AcDbEntity
  8
0
  6
Continuous
 62
     7
370
    25
100
AcDbLine
 10
348.1357841152
 20
121.7837448488
 30
0.0
 11
345.3619567084
 21
123.3852148488
 31
0.0
  0
LINE
  5
173
330
1F
100
AcDbEntity
  8
0
  6
Continuous
 62
     7
370
    25
100
AcDbLine
 10
183.2857841152
 20
121.7837448488
 30
0.0
 11
183.0357841152
 21
121.5337448488
 31
0.0
  0
LINE
  5
174
330
1F
100
AcDbEntity
  8
0
  6
Continuous
 62
     7
370
    25
100
AcDbLine
 10
183.0357841152
 20
115.7116848488
 30
0.0
 11
183.2857841152
 21
115.4616848488
 31
0.0
  0
LINE
  5
175
330
1F
100
AcDbEntity
  8
0
  6
Continuous
 62
     7
370
    25
100
AcDbLine
 10
195.7357841152
 20
121.7837448488
 30
0.0
 11
183.2857841152
 21
121.7837448488
 31
0.0
  0
LINE
  5
176
330
1F
100
AcDbEntity
  8
0
  6
Continuous
 62
     7
370
    25
100
AcDbLine
 10
183.2857841152
 20
115.4616848488
 30
0.0
 11
195.7357841152
 21
115.4616848488
 31
0.0
  0
LINE
  5
177
330
1F
100
AcDbEntity
  8
0
  6
Continuous
 62
     7
370
    25
100
AcDbLine
 10
273.0588595135
 20
137.6981148488
 30
0.0
 11
271.5588595135
 21
137.6981148488
 31
0.0
  0
LINE
  5
178
330
1F
100
AcDbEntity
  8
0
  6
Continuous
 62
     7
370
    25
100
AcDbLine
 10
271.5588595135
 20
99.5473148488
 30
0.0
 11
273.0588595135
 21
99.5473148488
 31
0.0
  0
LINE
  5
179
330
1F
100
AcDbEntity
  8
0
  6
Continuous
 62
     7
370
    25
100
AcDbLine
 10
345.3619567084
 20
123.3852148488
 30
0.0
 11
345.3619567084
 21
113.8602148488
 31
0.0
  0
LINE
  5
17A
330
1F
100
AcDbEntity
  8
0
  6
Continuous
 62
     7
370
    25
100
AcDbLine
 10
198.509611522
 20
123.3852148488
 30
0.0
 11
198.509611522
 21
113.8602148488
 31
0.0
  0
LINE
  5
17B
330
1F
100
AcDbEntity
  8
0
  6
Continuous
 62
     7
370
    25
100
AcDbLine
 10
195.7357841152
 20
121.7837448488
 30
0.0
 11
195.7357841152
 21
115.4616848488
 31
0.0
  0
LINE
  5
17C
330
1F
100
AcDbEntity
  8
0
  6
Continuous
 62
     7
370
    25
100
AcDbLine
 10
348.1357841152
 20
121.7837448488
 30
0.0
 11
348.1357841152
 21
115.4616848488
 31
0.0
  0
LINE
  5
17D
330
1F
100
AcDbEntity
  8
0
  6
Continuous
 62
     7
370
    25
100
AcDbLine
 10
183.2857841152
 20
121.7837448488
 30
0.0
 11
183.2857841152
 21
115.4616848488
 31
0.0
  0
LINE
  5
17E
330
1F
100
AcDbEntity
  8
0
  6
Continuous
 62
     7
370
    25
100
AcDbLine
 10
183.0357841152
 20
121.5337448488
 30
0.0
 11
183.0357841152
 21
115.7116848488
 31
0.0
  0
LINE
  5
17F
330
1F
100
AcDbEntity
  8
0
  6
Continuous
 62
     7
370
    25
100
AcDbLine
 10
283.0588595135
 20
102.7251148488
 30
0.0
 11
283.0588595135
 21
94.7467148488
 31
0.0
  0
LINE
  5
180
330
1F
100
AcDbEntity
  8
0
  6
Continuous
 62
     7
370
    25
100
AcDbLine
 10
273.0588595135
 20
94.7467148488
 30
0.0
 11
273.0588595135
 21
142.4987148488
 31
0.0
  0
LINE
  5
181
330
1F
100
AcDbEntity
  8
0
  6
Continuous
 62
     7
370
    25
100
AcDbLine
 10
283.0588595135
 20
142.4987148488
 30
0.0
 11
283.0588595135
 21
134.5203148488
 31
0.0
  0
LINE
  5
182
330
1F
100
AcDbEntity
  8
0
  6
Continuous
 62
     7
370
    25
100
AcDbLine
 10
318.2588595135
 20
134.5203148488
 30
0.0
 11
318.2588595135
 21
102.7251148488
 31
0.0
  0
LINE
  5
183
330
1F
100
AcDbEntity
  8
0
  6
Continuous
 62
     7
370
    25
100
AcDbLine
 10
318.2588595135
 20
99.7251148488
 30
0.0
 11
283.0588595135
 21
99.7251148488
 31
0.0
  0
LINE
  5
184
330
1F
100
AcDbEntity
  8
0
  6
Continuous
 62
     7
370
    25
100
AcDbLine
 10
318.2588595135
 20
102.7251148488
 30
0.0
 11
318.2588595135
 21
99.7251148488
 31
0.0
  0
LINE
  5
185
330
1F
100
AcDbEntity
  8
0
  6
Continuous
 62
     7
370
    25
100
AcDbLine
 10
273.0588595135
 20
146.8167148488
 30
0.0
 11
283.0588595135
 21
146.8167148488
 31
0.0
  0
LINE
  5
186
330
1F
100
AcDbEntity
  8
0
  6
Continuous
 62
     7
370
    25
100
AcDbLine
 10
283.0588595135
 20
146.8167148488
 30
0.0
 11
283.0588595135
 21
142.4987148488
 31
0.0
  0
LINE
  5
187
330
1F
100
AcDbEntity
  8
0
  6
Continuous
 62
     7
370
    25
100
AcDbLine
 10
273.0588595135
 20
142.4987148488
 30
0.0
 11
273.0588595135
 21
146.8167148488
 31
0.0
  0
LINE
  5
188
330
1F
100
AcDbEntity
  8
0
  6
Continuous
 62
     7
370
    25
100
AcDbLine
 10
283.0588595135
 20
137.5203148488
 30
0.0
 11
318.2588595135
 21
137.5203148488
 31
0.0
  0
LINE
  5
189
330
1F
100
AcDbEntity
  8
0
  6
Continuous
 62
     7
370
    25
100
AcDbLine
 10
318.2588595135
 20
137.5203148488
 30
0.0
 11
318.2588595135
 21
134.5203148488
 31
0.0
  0
LINE
  5
18A
330
1F
100
AcDbEntity
  8
0
  6
Continuous
 62
     7
370
    25
100
AcDbLine
 10
283.0588595135
 20
90.4287148488
 30
0.0
 11
273.0588595135
 21
90.4287148488
 31
0.0
  0
LINE
  5
18B
330
1F
100
AcDbEntity
  8
0
  6
Continuous
 62
     7
370
    25
100
AcDbLine
 10
273.0588595135
 20
90.4287148488
 30
0.0
 11
273.0588595135
 21
94.7467148488
 31
0.0
  0
LINE
  5
18C
330
1F
100
AcDbEntity
  8
0
  6
Continuous
 62
     7
370
    25
100
AcDbLine
 10
283.0588595135
 20
94.7467148488
 30
0.0
 11
283.0588595135
 21
90.4287148488
 31
0.0
  0
LINE
  5
18D
330
1F
100
AcDbEntity
  8
0
  6
Continuous
 62
     7
370
    25
100
AcDbLine
 10
318.2588595135
 20
137.5203148488
 30
0.0
 11
318.2588595135
 21
142.5203148488
 31
0.0
  0
LINE
  5
18E
330
1F
100
AcDbEntity
  8
0
  6
Continuous
 62
     7
370
    25
100
AcDbLine
 10
318.2588595135
 20
94.7251148488
 30
0.0
 11
318.2588595135
 21
99.7251148488
 31
0.0
  0
LINE
  5
18F
330
1F
100
AcDbEntity
  8
0
  6
Continuous
 62
     7
370
    25
100
AcDbLine
 10
271.5588595135
 20
118.6227148488
 30
0.0
 11
271.5588595135
 21
137.6981148488
 31
0.0
  0
LINE
  5
190
330
1F
100
AcDbEntity
  8
0
  6
Continuous
 62
     7
370
    25
100
AcDbLine
 10
271.5588595135
 20
99.5473148488
 30
0.0
 11
271.5588595135
 21
118.6227148488
 31
0.0
  0
LINE
  5
191
330
1F
100
AcDbEntity
  8
0
  6
Continuous
 62
     7
370
    25
100
AcDbLine
 10
318.2588595135
 20
142.5203148488
 30
0.0
 11
318.2588595135
 21
143.8167148488
 31
0.0
  0
LINE
  5
192
330
1F
100
AcDbEntity
  8
0
  6
Continuous
 62
     7
370
    25
100
AcDbLine
 10
283.0588595135
 20
146.8167148488
 30
0.0
 11
318.2588595135
 21
146.8167148488
 31
0.0
  0
LINE
  5
193
330
1F
100
AcDbEntity
  8
0
  6
Continuous
 62
     7
370
    25
100
AcDbLine
 10
318.2588595135
 20
146.8167148488
 30
0.0
 11
318.2588595135
 21
143.8167148488
 31
0.0
  0
LINE
  5
194
330
1F
100
AcDbEntity
  8
0
  6
Continuous
 62
     7
370
    25
100
AcDbLine
 10
318.2588595135
 20
93.4287148488
 30
0.0
 11
318.2588595135
 21
94.7251148488
 31
0.0
  0
LINE
  5
195
330
1F
100
AcDbEntity
  8
0
  6
Continuous
 62
     7
370
    25
100
AcDbLine
 10
318.2588595135
 20
90.4287148488
 30
0.0
 11
283.0588595135
 21
90.4287148488
 31
0.0
  0
LINE
  5
196
330
1F
100
AcDbEntity
  8
0
  6
Continuous
 62
     7
370
    25
100
AcDbLine
 10
318.2588595135
 20
93.4287148488
 30
0.0
 11
318.2588595135
 21
90.4287148488
 31
0.0
  0
DIMENSION
  5
197
330
1F
100
AcDbEntity
  8
0
  6
Continuous
 62
     7
370
    18
100
AcDbDimension
  2
_D_4
 10
348.1357841152
 20
156.8167148488
 30
0.0
 11
279.7759376306
 21
156.8167148488
 31
0.0
 70
   160
  1
<> %%p 0.76
 71
     2
 42
-1.0
  3
SLDDIMSTYLE4
100
AcDbAlignedDimension
 13
195.7357841152
 23
121.7837448488
 33
0.0
 14
348.1357841152
 24
121.7837448488
 34
0.0
100
AcDbRotatedDimension
  0
DIMENSION
  5
1A6
330
1F
100
AcDbEntity
  8
0
  6
Continuous
 62
     7
370
    18
100
AcDbDimension
  2
_D_5
 10
273.0588595135
 20
87.0315629636
 30
0.0
 11
309.6790947145
 21
87.0315629636
 31
0.0
 70
   160
  1
<>%%p0.25
 71
     2
 42
-1.0
  3
SLDDIMSTYLE5
100
AcDbAlignedDimension
 13
271.5588595135
 23
99.5473148488
 33
0.0
 14
273.0588595135
 24
90.4287148488
 34
0.0
100
AcDbRotatedDimension
  0
DIMENSION
  5
1B4
330
1F
100
AcDbEntity
  8
0
  6
Continuous
 62
     7
370
    18
100
AcDbDimension
  2
_D_6
 10
195.7357841152
 20
138.3507416614
 30
0.0
 11
173.0357841152
 21
138.3507416614
 31
0.0
 70
   160
  1
<>
 71
     2
 42
-1.0
  3
SLDDIMSTYLE4
100
AcDbAlignedDimension
 13
183.0357841152
 23
121.5337448488
 33
0.0
 14
195.7357841152
 24
121.7837448488
 34
0.0
100
AcDbRotatedDimension
  0
INSERT
  5
1C4
102
{ACAD_REACTORS
330
1CB
102
}
330
1F
100
AcDbEntity
  8
0
  6
Continuous
 62
     7
370
     0
100
AcDbBlockReference
  2
SW_NOTE_3
 10
230.0202312139
 20
88.435529183
 30
0.0
  0
LEADER
  5
1CB
330
1F
100
AcDbEntity
  8
0
  6
Continuous
 62
     7
370
     0
100
AcDbLeader
  3
SLDDIMSTYLE6
 73
     2
 76
     3
 10
188.3949537582
 20
116.1956433488
 30
0.0
 10
223.6702312139
 20
88.435529183
 30
0.0
 10
230.0202312139
 20
88.435529183
 30
0.0
340
1C4
  0
VIEWPORT
  5
1CC
330
1B
100
AcDbEntity
 67
     1
  8
0
100
AcDbViewport
 10
215.9
 20
139.7
 30
0.0
 40
456.8444
 41
295.6052
 68
     1
 69
     1
 12
215.9
 22
139.7
 13
0.0
 23
0.0
 14
10.0
 24
10.0
 15
10.0
 25
10.0
 16
0.0
 26
0.0
 36
1.0
 17
0.0
 27
0.0
 37
0.0
 42
50.0
 43
0.0
 44
0.0
 45
295.6052
 50
0.0
 51
0.0
 72
   100
 90
   557152
  1

281
     0
 71
     1
 74
     0
110
0.0
120
0.0
130
0.0
111
1.0
121
0.0
131
0.0
112
0.0
122
1.0
132
0.0
 79
     0
146
0.0
  0
LINE
  5
1CE
330
1B
100
AcDbEntity
 67
     1
  8
0
  6
Continuous
 62
     7
370
    18
100
AcDbLine
 10
419.1
 20
62.5944383331
 30
0.0
 11
419.1
 21
12.7
 31
0.0
  0
LINE
  5
1CF
330
1B
100
AcDbEntity
 67
     1
  8
0
  6
Continuous
 62
     7
370
    18
100
AcDbLine
 10
419.1
 20
12.7
 30
0.0
 11
179.1690166746
 21
12.7
 31
0.0
  0
LINE
  5
1D0
330
1B
100
AcDbEntity
 67
     1
  8
0
  6
Continuous
 62
     7
100
AcDbLine
 10
12.7
 20
266.7
 30
0.0
 11
12.7
 21
12.7
 31
0.0
  0
LINE
  5
1D1
330
1B
100
AcDbEntity
 67
     1
  8
0
  6
Continuous
 62
     7
100
AcDbLine
 10
12.7
 20
12.7
 30
0.0
 11
419.1
 21
12.7
 31
0.0
  0
LINE
  5
1D2
330
1B
100
AcDbEntity
 67
     1
  8
0
  6
Continuous
 62
     7
100
AcDbLine
 10
419.1
 20
12.7
 30
0.0
 11
419.1
 21
266.7
 31
0.0
  0
LINE
  5
1D3
330
1B
100
AcDbEntity
 67
     1
  8
0
  6
Continuous
 62
     7
100
AcDbLine
 10
419.1
 20
266.7
 30
0.0
 11
12.7
 21
266.7
 31
0.0
  0
LINE
  5
1D4
330
1B
100
AcDbEntity
 67
     1
  8
0
  6
Continuous
 62
     7
100
AcDbLine
 10
215.9
 20
266.7
 30
0.0
 11
215.9
 21
276.225
 31
0.0
  0
LINE
  5
1D5
330
1B
100
AcDbEntity
 67
     1
  8
0
  6
Continuous
 62
     7
100
AcDbLine
 10
419.1
 20
139.7
 30
0.0
 11
428.625
 21
139.7
 31
0.0
  0
LINE
  5
1D6
330
1B
100
AcDbEntity
 67
     1
  8
0
  6
Continuous
 62
     7
100
AcDbLine
 10
215.9
 20
12.7
 30
0.0
 11
215.9
 21
3.175
 31
0.0
  0
LINE
  5
1D7
330
1B
100
AcDbEntity
 67
     1
  8
0
  6
Continuous
 62
     7
100
AcDbLine
 10
12.7
 20
139.7
 30
0.0
 11
3.175
 21
139.7
 31
0.0
  0
LINE
  5
1D8
330
1B
100
AcDbEntity
 67
     1
  8
0
  6
Continuous
 62
     7
370
    18
100
AcDbLine
 10
270.9737310706
 20
12.7
 30
0.0
 11
270.9737310706
 21
62.5944383331
 31
0.0
  0
LINE
  5
1D9
330
1B
100
AcDbEntity
 67
     1
  8
0
  6
Continuous
 62
     7
370
    18
100
AcDbLine
 10
220.7541319701
 20
62.5944383331
 30
0.0
 11
419.1
 21
62.5944383331
 31
0.0
  0
LINE
  5
1DA
330
1B
100
AcDbEntity
 67
     1
  8
0
  6
Continuous
 62
     7
370
    18
100
AcDbLine
 10
305.9481386263
 20
62.5944383331
 30
0.0
 11
305.9481386263
 21
12.7
 31
0.0
  0
LINE
  5
1DB
330
1B
100
AcDbEntity
 67
     1
  8
0
  6
Continuous
 62
     7
370
    18
100
AcDbLine
 10
349.028512112
 20
62.5944383331
 30
0.0
 11
349.028512112
 21
12.7
 31
0.0
  0
LINE
  5
1DC
330
1B
100
AcDbEntity
 67
     1
  8
0
  6
Continuous
 62
     7
370
    18
100
AcDbLine
 10
349.028512112
 20
18.1073003199
 30
0.0
 11
419.1
 21
18.1073003199
 31
0.0
  0
LINE
  5
1DD
330
1B
100
AcDbEntity
 67
     1
  8
0
  6
Continuous
 62
     7
370
    18
100
AcDbLine
 10
349.028512112
 20
30.9845221033
 30
0.0
 11
419.1
 21
30.9845221033
 31
0.0
  0
LINE
  5
1DE
330
1B
100
AcDbEntity
 67
     1
  8
0
  6
Continuous
 62
     7
370
    18
100
AcDbLine
 10
349.028512112
 20
53.268808883
 30
0.0
 11
419.1
 21
53.268808883
 31
0.0
  0
LINE
  5
1DF
330
1B
100
AcDbEntity
 67
     1
  8
0
  6
Continuous
 62
     7
370
    18
100
AcDbLine
 10
359.0753486998
 20
30.9845221033
 30
0.0
 11
359.0753486998
 21
18.1073003199
 31
0.0
  0
LINE
  5
1E0
330
1B
100
AcDbEntity
 67
     1
  8
0
  6
Continuous
 62
     7
370
    18
100
AcDbLine
 10
369.9361795467
 20
18.1073003199
 30
0.0
 11
369.9361795467
 21
12.7
 31
0.0
  0
LINE
  5
1E1
330
1B
100
AcDbEntity
 67
     1
  8
0
  6
Continuous
 62
     7
370
    18
100
AcDbLine
 10
404.5728434947
 20
30.9845221033
 30
0.0
 11
404.5728434947
 21
18.1073003199
 31
0.0
  0
LINE
  5
1E2
330
1B
100
AcDbEntity
 67
     1
  8
0
  6
Continuous
 62
     7
370
    18
100
AcDbLine
 10
394.6227480427
 20
18.1073003199
 30
0.0
 11
394.6227480427
 21
12.7
 31
0.0
  0
LINE
  5
1E3
330
1B
100
AcDbEntity
 67
     1
  8
0
  6
Continuous
 62
     7
370
    18
100
AcDbLine
 10
220.7541319701
 20
17.68538066
 30
0.0
 11
305.9481386263
 21
17.68538066
 31
0.0
  0
LINE
  5
1E4
330
1B
100
AcDbEntity
 67
     1
  8
0
  6
Continuous
 62
     7
370
    18
100
AcDbLine
 10
305.9481386263
 20
48.3069383331
 30
0.0
 11
349.028512112
 21
48.3069383331
 31
0.0
  0
LINE
  5
1E5
330
1B
100
AcDbEntity
 67
     1
  8
0
  6
Continuous
 62
     7
370
    18
100
AcDbLine
 10
305.9481386263
 20
53.0694383331
 30
0.0
 11
349.028512112
 21
53.0694383331
 31
0.0
  0
LINE
  5
1E6
330
1B
100
AcDbEntity
 67
     1
  8
0
  6
Continuous
 62
     7
370
    18
100
AcDbLine
 10
305.9481386263
 20
57.8319383331
 30
0.0
 11
349.028512112
 21
57.8319383331
 31
0.0
  0
LINE
  5
1E7
330
1B
100
AcDbEntity
 67
     1
  8
0
  6
Continuous
 62
     7
370
    18
100
AcDbLine
 10
349.028512112
 20
34.0194383331
 30
0.0
 11
306.0625895844
 21
34.0194383331
 31
0.0
  0
LINE
  5
1E8
330
1B
100
AcDbEntity
 67
     1
  8
0
  6
Continuous
 62
     7
370
    18
100
AcDbLine
 10
336.8606683857
 20
62.5944383331
 30
0.0
 11
336.8606683857
 21
34.0194383331
 31
0.0
  0
LINE
  5
1E9
330
1B
100
AcDbEntity
 67
     1
  8
0
  6
Continuous
 62
     7
370
    18
100
AcDbLine
 10
324.9600773885
 20
62.5944383331
 30
0.0
 11
324.9600773885
 21
34.0194383331
 31
0.0
  0
LINE
  5
1EA
330
1B
100
AcDbEntity
 67
     1
  8
0
  6
Continuous
 62
     7
370
    18
100
AcDbLine
 10
270.9737310706
 20
24.4785733387
 30
0.0
 11
305.9481386263
 21
24.4785733387
 31
0.0
  0
LINE
  5
1EB
330
1B
100
AcDbEntity
 67
     1
  8
0
  6
Continuous
 62
     7
370
    18
100
AcDbLine
 10
270.9737310706
 20
31.3365733387
 30
0.0
 11
306.0625895844
 21
31.3365733387
 31
0.0
  0
LINE
  5
1EC
330
1B
100
AcDbEntity
 67
     1
  8
0
  6
Continuous
 62
     7
370
    18
100
AcDbLine
 10
220.7541319701
 20
12.7
 30
0.0
 11
220.7541319701
 21
62.5944383331
 31
0.0
  0
LINE
  5
1ED
330
1B
100
AcDbEntity
 67
     1
  8
0
  6
Continuous
 62
     7
370
    18
100
AcDbLine
 10
220.7541319701
 20
30.8444383331
 30
0.0
 11
270.9737310706
 21
30.8444383331
 31
0.0
  0
LINE
  5
1EE
330
1B
100
AcDbEntity
 67
     1
  8
0
  6
Continuous
 62
     7
370
    18
100
AcDbLine
 10
220.7541319701
 20
37.1944383331
 30
0.0
 11
270.9737310706
 21
37.1944383331
 31
0.0
  0
LINE
  5
1EF
330
1B
100
AcDbEntity
 67
     1
  8
0
  6
Continuous
 62
     7
370
    18
100
AcDbLine
 10
220.7541319701
 20
43.5444383331
 30
0.0
 11
270.9737310706
 21
43.5444383331
 31
0.0
  0
LINE
  5
1F0
330
1B
100
AcDbEntity
 67
     1
  8
0
  6
Continuous
 62
     7
370
    18
100
AcDbLine
 10
220.7541319701
 20
49.8944383331
 30
0.0
 11
270.9737310706
 21
49.8944383331
 31
0.0
  0
LINE
  5
1F1
330
1B
100
AcDbEntity
 67
     1
  8
0
  6
Continuous
 62
     7
370
    18
100
AcDbLine
 10
246.1028272634
 20
62.5944383331
 30
0.0
 11
246.1028272634
 21
17.68538066
 31
0.0
  0
LINE
  5
1F2
330
1B
100
AcDbEntity
 67
     1
  8
0
  6
Continuous
 62
     7
370
    18
100
AcDbLine
 10
305.9481386263
 20
58.6742077444
 30
0.0
 11
270.9737310706
 21
58.6742077444
 31
0.0
  0
LINE
  5
1F3
330
1B
100
AcDbEntity
 67
     1
  8
0
  6
Continuous
 62
     7
370
    18
100
AcDbLine
 10
349.028512112
 20
43.5444383331
 30
0.0
 11
305.9481386263
 21
43.5444383331
 31
0.0
  0
LINE
  5
1F4
330
1B
100
AcDbEntity
 67
     1
  8
0
  6
Continuous
 62
     7
370
    18
100
AcDbLine
 10
349.028512112
 20
38.7819383331
 30
0.0
 11
305.9481386263
 21
38.7819383331
 31
0.0
  0
LINE
  5
1F5
330
1B
100
AcDbEntity
 67
     1
  8
0
  6
Continuous
 62
     7
370
    18
100
AcDbLine
 10
220.7541319701
 20
56.2444383331
 30
0.0
 11
270.9737310706
 21
56.2444383331
 31
0.0
  0
LINE
  5
1F6
330
1B
100
AcDbEntity
 67
     1
  8
0
  6
Continuous
 62
     7
370
    18
100
AcDbLine
 10
270.9737310706
 20
38.1945733387
 30
0.0
 11
306.0625895844
 21
38.1945733387
 31
0.0
  0
LINE
  5
1F7
330
1B
100
AcDbEntity
 67
     1
  8
0
  6
Continuous
 62
     7
370
    18
100
AcDbLine
 10
220.7541319701
 20
24.4944383331
 30
0.0
 11
270.9737310706
 21
24.4944383331
 31
0.0
  0
LINE
  5
1F8
330
1B
100
AcDbEntity
 67
     1
  8
0
  6
Continuous
 62
     7
370
    18
100
AcDbLine
 10
179.1690166746
 20
12.7
 30
0.0
 11
179.1690166746
 21
35.9244383331
 31
0.0
  0
LINE
  5
1F9
330
1B
100
AcDbEntity
 67
     1
  8
0
  6
Continuous
 62
     7
370
    18
100
AcDbLine
 10
220.7541319701
 20
35.9244383331
 30
0.0
 11
179.1690166746
 21
35.9244383331
 31
0.0
  0
LINE
  5
1FA
330
1B
100
AcDbEntity
 67
     1
  8
0
  6
Continuous
 62
     7
100
AcDbLine
 10
107.95
 20
12.7
 30
0.0
 11
107.95
 21
3.175
 31
0.0
  0
LINE
  5
1FB
330
1B
100
AcDbEntity
 67
     1
  8
0
  6
Continuous
 62
     7
100
AcDbLine
 10
323.85
 20
12.7
 30
0.0
 11
323.85
 21
3.175
 31
0.0
  0
LINE
  5
1FC
330
1B
100
AcDbEntity
 67
     1
  8
0
  6
Continuous
 62
     7
100
AcDbLine
 10
323.85
 20
266.7
 30
0.0
 11
323.85
 21
276.225
 31
0.0
  0
LINE
  5
1FD
330
1B
100
AcDbEntity
 67
     1
  8
0
  6
Continuous
 62
     7
100
AcDbLine
 10
107.95
 20
266.7
 30
0.0
 11
107.95
 21
276.225
 31
0.0
  0
INSERT
  5
203
330
1B
100
AcDbEntity
 67
     1
  8
0
  6
Continuous
 62
     7
370
     0
100
AcDbBlockReference
  2
SW_NOTE_4
 10
367.110004497
 20
124.4602857672
 30
0.0
  0
MTEXT
  5
204
330
1B
100
AcDbEntity
 67
     1
  8
0
  6
Continuous
 62
     7
370
     0
100
AcDbMText
 10
53.9136166697
 20
10.3141297083
 30
0.0
 40
6.096
 41
0.0
 71
     2
 72
     1
  1
4
  7
SLDTEXTSTYLE0
 73
     1
 44
1.0
  0
MTEXT
  5
205
330
1B
100
AcDbEntity
 67
     1
  8
0
  6
Continuous
 62
     7
370
     0
100
AcDbMText
 10
6.1065833417
 20
73.7563262401
 30
0.0
 40
6.096
 41
0.0
 71
     2
 72
     1
  1
A
  7
SLDTEXTSTYLE0
 73
     1
 44
1.0
  0
MTEXT
  5
206
330
1B
100
AcDbEntity
 67
     1
  8
0
  6
Continuous
 62
     7
370
     0
100
AcDbMText
 10
377.7636166697
 20
10.3141297083
 30
0.0
 40
6.096
 41
0.0
 71
     2
 72
     1
  1
1
  7
SLDTEXTSTYLE0
 73
     1
 44
1.0
  0
MTEXT
  5
207
330
1B
100
AcDbEntity
 67
     1
  8
0
  6
Continuous
 62
     7
370
     0
100
AcDbMText
 10
269.8136166697
 20
10.3141297083
 30
0.0
 40
6.096
 41
0.0
 71
     2
 72
     1
  1
2
  7
SLDTEXTSTYLE0
 73
     1
 44
1.0
  0
MTEXT
  5
208
330
1B
100
AcDbEntity
 67
     1
  8
0
  6
Continuous
 62
     7
370
     0
100
AcDbMText
 10
161.8636166697
 20
10.3141297083
 30
0.0
 40
6.096
 41
0.0
 71
     2
 72
     1
  1
3
  7
SLDTEXTSTYLE0
 73
     1
 44
1.0
  0
MTEXT
  5
209
330
1B
100
AcDbEntity
 67
     1
  8
0
  6
Continuous
 62
     7
370
     0
100
AcDbMText
 10
6.3034332283
 20
213.4563262401
 30
0.0
 40
6.096
 41
0.0
 71
     2
 72
     1
  1
B
  7
SLDTEXTSTYLE0
 73
     1
 44
1.0
  0
MTEXT
  5
20A
330
1B
100
AcDbEntity
 67
     1
  8
0
  6
Continuous
 62
     7
370
     0
100
AcDbMText
 10
424.6790371829
 20
213.4563262401
 30
0.0
 40
6.096
 41
0.0
 71
     2
 72
     1
  1
B
  7
SLDTEXTSTYLE0
 73
     1
 44
1.0
  0
MTEXT
  5
20B
330
1B
100
AcDbEntity
 67
     1
  8
0
  6
Continuous
 62
     7
370
     0
100
AcDbMText
 10
424.4821872963
 20
73.7563262401
 30
0.0
 40
6.096
 41
0.0
 71
     2
 72
     1
  1
A
  7
SLDTEXTSTYLE0
 73
     1
 44
1.0
  0
MTEXT
  5
20C
330
1B
100
AcDbEntity
 67
     1
  8
0
  6
Continuous
 62
     7
370
     0
100
AcDbMText
 10
269.8136166697
 20
276.4296053685
 30
0.0
 40
6.096
 41
0.0
 71
     2
 72
     1
  1
2
  7
SLDTEXTSTYLE0
 73
     1
 44
1.0
  0
MTEXT
  5
20D
330
1B
100
AcDbEntity
 67
     1
  8
0
  6
Continuous
 62
     7
370
     0
100
AcDbMText
 10
377.7636166697
 20
276.4296053685
 30
0.0
 40
6.096
 41
0.0
 71
     2
 72
     1
  1
1
  7
SLDTEXTSTYLE0
 73
     1
 44
1.0
  0
MTEXT
  5
20E
330
1B
100
AcDbEntity
 67
     1
  8
0
  6
Continuous
 62
     7
370
     0
100
AcDbMText
 10
161.8636166697
 20
276.4296053685
 30
0.0
 40
6.096
 41
0.0
 71
     2
 72
     1
  1
3
  7
SLDTEXTSTYLE0
 73
     1
 44
1.0
  0
MTEXT
  5
20F
330
1B
100
AcDbEntity
 67
     1
  8
0
  6
Continuous
 62
     7
370
     0
100
AcDbMText
 10
53.9136166697
 20
276.4296053685
 30
0.0
 40
6.096
 41
0.0
 71
     2
 72
     1
  1
4
  7
SLDTEXTSTYLE0
 73
     1
 44
1.0
  0
MTEXT
  5
210
330
1B
100
AcDbEntity
 67
     1
  8
0
  6
Continuous
 62
     7
370
     0
100
AcDbMText
 10
384.7088546276
 20
48.0716913567
 30
0.0
 40
6.35
 41
0.0
 71
     2
 72
     1
  1
LHS-020-0600-RF
  7
SLDTEXTSTYLE0
 73
     1
 44
1.0
  0
MTEXT
  5
211
330
1B
100
AcDbEntity
 67
     1
  8
0
  6
Continuous
 62
     7
370
     0
100
AcDbMText
 10
288.453747668
 20
15.8946104384
 30
0.0
 40
1.5875
 41
0.0
 71
     2
 72
     1
  1
DO NOT SCALE DRAWING
  7
SLDTEXTSTYLE0
 73
     1
 44
1.0
  0
MTEXT
  5
212
330
1B
100
AcDbEntity
 67
     1
  8
0
  6
Continuous
 62
     7
370
     0
100
AcDbMText
 10
381.9250230046
 20
26.6606855348
 30
0.0
 40
3.175
 41
0.0
 71
     2
 72
     1
  1
LHS-020-0xxx
  7
SLDTEXTSTYLE0
 73
     1
 44
1.0
  0
MTEXT
  5
213
330
1B
100
AcDbEntity
 67
     1
  8
0
  6
Continuous
 62
     7
370
     0
100
AcDbMText
 10
396.9309015475
 20
16.7729098749
 30
0.0
 40
2.54
 41
0.0
 71
     1
 72
     1
  1
SHEET 2 OF 2
  7
SLDTEXTSTYLE1
 73
     1
 44
1.0
  0
MTEXT
  5
214
330
1B
100
AcDbEntity
 67
     1
  8
0
  6
Continuous
 62
     7
370
     0
100
AcDbMText
 10
343.0170426927
 20
56.3768314781
 30
0.0
 40
1.905
 41
0.0
 71
     2
 72
     1
  1
3/17/17
  7
SLDTEXTSTYLE0
 73
     1
 44
1.0
  0
MTEXT
  5
215
330
1B
100
AcDbEntity
 67
     1
  8
0
  6
Continuous
 62
     7
370
     0
100
AcDbMText
 10
330.9167828301
 20
56.4783538786
 30
0.0
 40
1.905
 41
0.0
 71
     2
 72
     1
  1
AS
  7
SLDTEXTSTYLE0
 73
     1
 44
1.0
  0
MTEXT
  5
216
330
1B
100
AcDbEntity
 67
     1
  8
0
  6
Continuous
 62
     7
370
     0
100
AcDbMText
 10
272.1579719589
 20
61.4990449608
 30
0.0
 40
1.778
 41
0.0
 71
     1
 72
     1
  1
UNLESS OTHERWISE SPECIFIED:
  7
SLDTEXTSTYLE0
 73
     1
 44
1.0
  0
MTEXT
  5
217
330
1B
100
AcDbEntity
 67
     1
  8
0
  6
Continuous
 62
     7
370
     0
100
AcDbMText
 10
351.2486489046
 20
16.7646506765
 30
0.0
 40
2.54
 41
0.0
 71
     1
 72
     1
  1
SCALE: 1:2
  7
SLDTEXTSTYLE0
 73
     1
 44
1.0
  0
MTEXT
  5
218
330
1B
100
AcDbEntity
 67
     1
  8
0
  6
Continuous
 62
     7
370
     0
100
AcDbMText
 10
370.1400309829
 20
16.6777203587
 30
0.0
 40
2.54
 41
0.0
 71
     1
 72
     1
  1
WEIGHT:
  7
SLDTEXTSTYLE0
 73
     1
 44
1.0
  0
MTEXT
  5
219
330
1B
100
AcDbEntity
 67
     1
  8
0
  6
Continuous
 62
     7
370
     0
100
AcDbMText
 10
408.8849098979
 20
30.2232854568
 30
0.0
 40
2.54
 41
0.0
 71
     1
 72
     1
  1
REV
  7
SLDTEXTSTYLE0
 73
     1
 44
1.0
  0
MTEXT
  5
21A
330
1B
100
AcDbEntity
 67
     1
  8
0
  6
Continuous
 62
     7
370
     0
100
AcDbMText
 10
359.8806642798
 20
30.3225037079
 30
0.0
 40
2.54
 41
0.0
 71
     1
 72
     1
  1
DWG.  NO.
  7
SLDTEXTSTYLE2
 73
     1
 44
1.0
  0
MTEXT
  5
21B
330
1B
100
AcDbEntity
 67
     1
  8
0
  6
Continuous
 62
     7
370
     0
100
AcDbMText
 10
351.2800000853
 20
26.7243788986
 30
0.0
 40
6.35
 41
0.0
 71
     1
 72
     1
  1
B
  7
SLDTEXTSTYLE0
 73
     1
 44
1.0
  0
MTEXT
  5
21C
330
1B
100
AcDbEntity
 67
     1
  8
0
  6
Continuous
 62
     7
370
     0
100
AcDbMText
 10
351.079592027
 20
30.3580337109
 30
0.0
 40
2.54
 41
0.0
 71
     1
 72
     1
  1
SIZE
  7
SLDTEXTSTYLE0
 73
     1
 44
1.0
  0
MTEXT
  5
21D
330
1B
100
AcDbEntity
 67
     1
  8
0
  6
Continuous
 62
     7
370
     0
100
AcDbMText
 10
350.1934428097
 20
52.3929595276
 30
0.0
 40
2.54
 41
0.0
 71
     1
 72
     1
  1
TITLE:
  7
SLDTEXTSTYLE0
 73
     1
 44
1.0
  0
MTEXT
  5
21E
330
1B
100
AcDbEntity
 67
     1
  8
0
  6
Continuous
 62
     7
370
     0
100
AcDbMText
 10
388.5818972407
 20
60.2295013632
 30
0.0
 40
3.7041666667
 41
0.0
 71
     2
 72
     1
  1
Roll-2-Roll Technologies LLC
  7
SLDTEXTSTYLE3
 73
     1
 44
1.0
  0
MTEXT
  5
21F
330
1B
100
AcDbEntity
 67
     1
  8
0
  6
Continuous
 62
     7
370
     0
100
AcDbMText
 10
327.8238425205
 20
60.9229910986
 30
0.0
 40
1.651
 41
0.0
 71
     1
 72
     1
  1
NAME
  7
SLDTEXTSTYLE0
 73
     1
 44
1.0
  0
MTEXT
  5
220
330
1B
100
AcDbEntity
 67
     1
  8
0
  6
Continuous
 62
     7
370
     0
100
AcDbMText
 10
340.3148912103
 20
60.8788912243
 30
0.0
 40
1.651
 41
0.0
 71
     1
 72
     1
  1
DATE
  7
SLDTEXTSTYLE0
 73
     1
 44
1.0
  0
MTEXT
  5
221
330
1B
100
AcDbEntity
 67
     1
  8
0
  6
Continuous
 62
     7
370
     0
100
AcDbMText
 10
307.2838076531
 20
32.9087008505
 30
0.0
 40
1.651
 41
0.0
 71
     1
 72
     1
  1
COMMENTS:
  7
SLDTEXTSTYLE0
 73
     1
 44
1.0
  0
MTEXT
  5
222
330
1B
100
AcDbEntity
 67
     1
  8
0
  6
Continuous
 62
     7
370
     0
100
AcDbMText
 10
307.2616193103
 20
37.1230397293
 30
0.0
 40
1.651
 41
0.0
 71
     1
 72
     1
  1
Q.A.
  7
SLDTEXTSTYLE0
 73
     1
 44
1.0
  0
MTEXT
  5
223
330
1B
100
AcDbEntity
 67
     1
  8
0
  6
Continuous
 62
     7
370
     0
100
AcDbMText
 10
307.3028766528
 20
41.8454756596
 30
0.0
 40
1.651
 41
0.0
 71
     1
 72
     1
  1
MFG APPR.
  7
SLDTEXTSTYLE0
 73
     1
 44
1.0
  0
MTEXT
  5
224
330
1B
100
AcDbEntity
 67
     1
  8
0
  6
Continuous
 62
     7
370
     0
100
AcDbMText
 10
307.177189414
 20
46.6007959981
 30
0.0
 40
1.651
 41
0.0
 71
     1
 72
     1
  1
ENG APPR.
  7
SLDTEXTSTYLE0
 73
     1
 44
1.0
  0
MTEXT
  5
225
330
1B
100
AcDbEntity
 67
     1
  8
0
  6
Continuous
 62
     7
370
     0
100
AcDbMText
 10
307.2506782356
 20
51.2367971468
 30
0.0
 40
1.651
 41
0.0
 71
     1
 72
     1
  1
CHECKED
  7
SLDTEXTSTYLE0
 73
     1
 44
1.0
  0
MTEXT
  5
226
330
1B
100
AcDbEntity
 67
     1
  8
0
  6
Continuous
 62
     7
370
     0
100
AcDbMText
 10
307.196551863
 20
56.122746594
 30
0.0
 40
1.651
 41
0.0
 71
     1
 72
     1
  1
DRAWN
  7
SLDTEXTSTYLE0
 73
     1
 44
1.0
  0
MTEXT
  5
227
330
1B
100
AcDbEntity
 67
     1
  8
0
  6
Continuous
 62
     7
370
     0
100
AcDbMText
 10
271.5497006873
 20
23.9382316328
 30
0.0
 40
1.524
 41
0.0
 71
     1
 72
     1
  1
FINISH
  7
SLDTEXTSTYLE0
 73
     1
 44
1.0
  0
MTEXT
  5
228
330
1B
100
AcDbEntity
 67
     1
  8
0
  6
Continuous
 62
     7
370
     0
100
AcDbMText
 10
271.4802054458
 20
30.7530141342
 30
0.0
 40
1.524
 41
0.0
 71
     1
 72
     1
  1
MATERIAL
  7
SLDTEXTSTYLE0
 73
     1
 44
1.0
  0
INSERT
  5
22E
330
1B
100
AcDbEntity
 67
     1
  8
0
  6
Continuous
 62
     7
370
     0
100
AcDbBlockReference
  2
SW_NOTE_5
 10
271.6089478467
 20
34.8635605478
 30
0.0
  0
MTEXT
  5
22F
330
1B
100
AcDbEntity
 67
     1
  8
0
  6
Continuous
 62
     7
370
     0
100
AcDbMText
 10
271.9173361573
 20
56.2469584634
 30
0.0
 40
1.5875
 41
0.0
 71
     1
 72
     1
  1
ALL DIMENSIONS ARE IN MM
  7
SLDTEXTSTYLE4
 73
     1
 44
1.0
  0
MTEXT
  5
230
330
1B
100
AcDbEntity
 67
     1
  8
0
  6
Continuous
 62
     7
370
     0
100
AcDbMText
 10
239.349610419
 20
15.9495751364
 30
0.0
 40
1.5875
 41
0.0
 71
     1
 72
     1
  1
APPLICATION
  7
SLDTEXTSTYLE0
 73
     1
 44
1.0
  0
MTEXT
  5
231
330
1B
100
AcDbEntity
 67
     1
  8
0
  6
Continuous
 62
     7
370
     0
100
AcDbMText
 10
253.2540979063
 20
21.7975753227
 30
0.0
 40
1.5875
 41
0.0
 71
     1
 72
     1
  1
USED ON
  7
SLDTEXTSTYLE0
 73
     1
 44
1.0
  0
MTEXT
  5
232
330
1B
100
AcDbEntity
 67
     1
  8
0
  6
Continuous
 62
     7
370
     0
100
AcDbMText
 10
227.9415038203
 20
21.7712622135
 30
0.0
 40
1.5875
 41
0.0
 71
     1
 72
     1
  1
NEXT ASSY
  7
SLDTEXTSTYLE0
 73
     1
 44
1.0
  0
MTEXT
  5
233
330
1B
100
AcDbEntity
 67
     1
  8
0
  6
Continuous
 62
     7
370
     0
100
AcDbMText
 10
183.9295775012
 20
34.482890082
 30
0.0
 40
1.524
 41
0.0
 71
     1
 72
     1
  1
PROPRIETARY AND CONFIDENTIAL
  7
SLDTEXTSTYLE0
 73
     1
 44
1.0
  0
INSERT
  5
23E
330
1B
100
AcDbEntity
 67
     1
  8
0
  6
Continuous
 62
     7
370
     0
100
AcDbBlockReference
  2
SW_NOTE_6
 10
180.1544252483
 20
28.9376134837
 30
0.0
  0
LINE
  5
23F
330
1B
100
AcDbEntity
 67
     1
  8
0
  6
Continuous
 62
     7
370
    25
100
AcDbLine
 10
291.4900540288
 20
179.4903739816
 30
0.0
 11
291.4900540288
 21
179.2862719536
 31
0.0
  0
LINE
  5
240
330
1B
100
AcDbEntity
 67
     1
  8
0
  6
Continuous
 62
     7
370
    25
100
AcDbLine
 10
293.5481285327
 20
175.7211960637
 30
0.0
 11
293.7248764968
 21
175.6191284636
 31
0.0
  0
LINE
  5
241
330
1B
100
AcDbEntity
 67
     1
  8
0
  6
Continuous
 62
     7
370
    25
100
AcDbLine
 10
300.9483326474
 20
186.0197756463
 30
0.0
 11
292.1448532216
 21
180.9376351502
 31
0.0
  0
LINE
  5
242
330
1B
100
AcDbEntity
 67
     1
  8
0
  6
Continuous
 62
     7
370
    25
100
AcDbLine
 10
295.3056263331
 20
175.4624222793
 30
0.0
 11
304.1091057588
 21
180.5445627754
 31
0.0
  0
LINE
  5
243
330
1B
100
AcDbEntity
 67
     1
  8
0
  6
Continuous
 62
     7
370
    25
100
AcDbLine
 10
301.3442502145
 20
187.6182880349
 30
0.0
 11
300.6109589059
 21
185.8250139309
 31
0.0
  0
LINE
  5
244
330
1B
100
AcDbEntity
 67
     1
  8
0
  6
Continuous
 62
     7
370
    25
100
AcDbLine
 10
303.7717320173
 20
180.34980106
 30
0.0
 11
305.6913740462
 21
180.0880327727
 31
0.0
  0
LINE
  5
245
330
1B
100
AcDbEntity
 67
     1
  8
0
  6
Continuous
 62
     7
370
    25
100
AcDbLine
 10
405.9493440047
 20
248.4847374409
 30
0.0
 11
402.5085875485
 21
246.4984310185
 31
0.0
  0
LINE
  5
246
330
1B
100
AcDbEntity
 67
     1
  8
0
  6
Continuous
 62
     7
370
    25
100
AcDbLine
 10
353.7626735056
 20
218.3580138272
 30
0.0
 11
302.1090548902
 21
188.5390145157
 31
0.0
  0
LINE
  5
247
330
1B
100
AcDbEntity
 67
     1
  8
0
  6
Continuous
 62
     7
370
    25
100
AcDbLine
 10
306.8711678544
 20
180.2898991016
 30
0.0
 11
358.5247864698
 21
210.108898413
 31
0.0
  0
LINE
  5
248
330
1B
100
AcDbEntity
 67
     1
  8
0
  6
Continuous
 62
     7
370
    25
100
AcDbLine
 10
407.2730228828
 20
238.2506562801
 30
0.0
 11
410.7114569689
 21
240.2356220268
 31
0.0
  0
LINE
  5
249
330
1B
100
AcDbEntity
 67
     1
  8
0
  6
Continuous
 62
     7
370
    25
100
AcDbLine
 10
411.4762616446
 20
241.1563485076
 30
0.0
 11
412.3798055684
 21
243.3659777525
 31
0.0
  0
LINE
  5
24A
330
1B
100
AcDbEntity
 67
     1
  8
0
  6
Continuous
 62
     7
370
    25
100
AcDbLine
 10
409.4944745772
 20
248.3640591785
 30
0.0
 11
407.1291378129
 21
248.6866037698
 31
0.0
  0
LINE
  5
24B
330
1B
100
AcDbEntity
 67
     1
  8
0
  6
Continuous
 62
     7
370
    25
100
AcDbLine
 10
347.6674652632
 20
231.3659906734
 30
0.0
 11
346.6068050914
 21
230.7536845895
 31
0.0
  0
LINE
  5
24C
330
1B
100
AcDbEntity
 67
     1
  8
0
  6
Continuous
 62
     7
370
    25
100
AcDbLine
 10
365.680654884
 20
197.7132276506
 30
0.0
 11
366.7413150557
 21
198.3255337345
 31
0.0
  0
LINE
  5
24D
330
1B
100
AcDbEntity
 67
     1
  8
0
  6
Continuous
 62
     7
370
    25
100
AcDbLine
 10
376.2460962108
 20
181.8641547527
 30
0.0
 11
383.3171640227
 21
185.9461953118
 31
0.0
  0
LINE
  5
24E
330
1B
100
AcDbEntity
 67
     1
  8
0
  6
Continuous
 62
     7
370
    25
100
AcDbLine
 10
345.23375192
 20
251.9094102143
 30
0.0
 11
338.1626841081
 21
247.8273696552
 31
0.0
  0
LINE
  5
24F
330
1B
100
AcDbEntity
 67
     1
  8
0
  6
Continuous
 62
     7
370
    25
100
AcDbLine
 10
384.2116265601
 20
193.4230749518
 30
0.0
 11
408.4803430133
 21
207.4331067483
 31
0.0
  0
LINE
  5
250
330
1B
100
AcDbEntity
 67
     1
  8
0
  6
Continuous
 62
     7
370
    25
100
AcDbLine
 10
376.4244378056
 20
262.9561261322
 30
0.0
 11
352.1555785306
 21
248.9460118864
 31
0.0
  0
LINE
  5
251
330
1B
100
AcDbEntity
 67
     1
  8
0
  6
Continuous
 62
     7
370
    25
100
AcDbLine
 10
384.2116265601
 20
193.421841319
 30
0.0
 11
401.9067955327
 21
203.6370449301
 31
0.0
  0
LWPOLYLINE
  5
252
330
1B
100
AcDbEntity
 67
     1
  8
0
  6
Continuous
 62
     7
370
    25
100
AcDbPolyline
 90
       21
 70
   128
 43
0.0
 10
291.4900540288
 20
179.4903739816
 10
291.5550044644
 20
180.0705789481
 10
291.7460810879
 20
180.5420743342
 10
292.0521792204
 20
180.8774585419
 10
292.4555095512
 20
181.0572402602
 10
292.9326319875
 20
181.0709712289
 10
293.4558179075
 20
180.9178534542
 10
293.9946616472
 20
180.6067855845
 10
294.5178475672
 20
180.1558457537
 10
294.9949700035
 20
179.5912409457
 10
295.3983003343
 20
178.9457839397
 10
295.7043984668
 20
178.2569863508
 10
295.8954750903
 20
177.5648785911
 10
295.9604255259
 20
176.9096834478
 10
295.8954750903
 20
176.3294784813
 10
295.7043984668
 20
175.8579830952
 10
295.3983003343
 20
175.5225988875
 10
294.9949700035
 20
175.3428171693
 10
294.5178475672
 20
175.3290862005
 10
293.9946616472
 20
175.4822039753
 10
293.7248764968
 20
175.6191284636
  0
LWPOLYLINE
  5
253
330
1B
100
AcDbEntity
 67
     1
  8
0
  6
Continuous
 62
     7
370
    25
100
AcDbPolyline
 90
       26
 70
   128
 43
0.0
 10
291.4900540288
 20
179.2862719536
 10
291.5547227344
 20
179.8400690992
 10
291.7446654784
 20
180.2844042354
 10
292.0479474598
 20
180.5913581512
 10
292.4455123563
 20
180.7416438033
 10
292.9123797032
 20
180.7258181914
 10
293.4192145082
 20
180.544875697
 10
293.9341704764
 20
180.2101856025
 10
294.4248910305
 20
179.7427777173
 10
294.8605423933
 20
179.1720209979
 10
295.2137509875
 20
178.5337781881
 10
295.4623234181
 20
177.8681524309
 10
295.5906409651
 20
177.2169674407
 10
295.5906409651
 20
176.6211395652
 10
295.4623234181
 20
176.1181068612
 10
295.2137509875
 20
175.7394767235
 10
294.8605423933
 20
175.5090398762
 10
294.4248910305
 20
175.4412755138
 10
293.9341704764
 20
175.5404415205
 10
293.4192145082
 20
175.8003069314
 10
292.9123797032
 20
176.2045434469
 10
292.4455123563
 20
176.7277514002
 10
292.0479474598
 20
177.3370557113
 10
291.7446654784
 20
177.9941715494
 10
291.5547227344
 20
178.6578099098
 10
291.4900540288
 20
179.2862719536
  0
LWPOLYLINE
  5
254
330
1B
100
AcDbEntity
 67
     1
  8
0
  6
Continuous
 62
     7
370
    25
100
AcDbPolyline
 90
       15
 70
   128
 43
0.0
 10
300.9483326474
 20
186.0197756463
 10
301.258988977
 20
186.1393807562
 10
301.7361114132
 20
186.153111725
 10
302.2592973332
 20
185.9999939503
 10
302.798141073
 20
185.6889260806
 10
303.321326993
 20
185.2379862498
 10
303.7984494293
 20
184.6733814418
 10
304.2017797601
 20
184.0279244358
 10
304.5078778926
 20
183.3391268469
 10
304.6989545161
 20
182.6470190872
 10
304.7639049517
 20
181.9918239439
 10
304.6989545161
 20
181.4116189774
 10
304.5078778926
 20
180.9401235913
 10
304.2017797601
 20
180.6047393836
 10
304.1091057588
 20
180.5445627754
  0
LWPOLYLINE
  5
255
330
1B
100
AcDbEntity
 67
     1
  8
0
  6
Continuous
 62
     7
370
    25
100
AcDbPolyline
 90
       23
 70
   128
 43
0.0
 10
301.3442502145
 20
187.6182880349
 10
301.3788583122
 20
187.6987149701
 10
301.690057594
 20
188.1913814235
 10
302.1088613723
 20
188.5389027821
 10
302.6191752527
 20
188.7279239949
 10
303.2013881588
 20
188.7511810828
 10
303.8331259754
 20
188.6077802889
 10
304.4901113723
 20
188.3032324253
 10
305.1470967692
 20
187.8492410956
 10
305.7788345858
 20
187.2632529319
 10
306.361047492
 20
186.5677871309
 10
306.8713613723
 20
185.7895700533
 10
307.2901651506
 20
184.9585081448
 10
307.6013644324
 20
184.1065386485
 10
307.793000004
 20
183.2664022745
 10
307.8577074177
 20
182.4703849924
 10
307.793000004
 20
181.7490772999
 10
307.6013644324
 20
181.1301986472
 10
307.2901651506
 20
180.6375321938
 10
306.8713613723
 20
180.2900108352
 10
306.361047492
 20
180.1009896224
 10
305.7788345858
 20
180.0777325345
 10
305.6913740462
 20
180.0880327727
  0
LWPOLYLINE
  5
256
330
1B
100
AcDbEntity
 67
     1
  8
0
  6
Continuous
 62
     7
370
    25
100
AcDbPolyline
 90
       18
 70
   128
 43
0.0
 10
405.9493440047
 20
248.4847374409
 10
406.4594643671
 20
248.6736469201
 10
407.0416772733
 20
248.696904008
 10
407.6734150898
 20
248.5535032141
 10
408.3304004868
 20
248.2489553504
 10
408.9873858837
 20
247.7949640207
 10
409.6191237002
 20
247.2089758571
 10
410.2013366064
 20
246.5135100561
 10
410.7116504868
 20
245.7352929785
 10
411.130454265
 20
244.9042310699
 10
411.4416535469
 20
244.0522615737
 10
411.6332891184
 20
243.2121251997
 10
411.6979965322
 20
242.4161079176
 10
411.6332891184
 20
241.6948002251
 10
411.4416535469
 20
241.0759215724
 10
411.130454265
 20
240.583255119
 10
410.7116504868
 20
240.2357337604
 10
410.7114569689
 20
240.2356220268
  0
ARC
  5
257
330
1B
100
AcDbEntity
 67
     1
  8
0
  6
Continuous
 62
     7
370
    25
100
AcDbCircle
 10
408.3335238198
 20
244.3619827956
 30
0.0
 40
4.167063958612734
100
AcDbArc
 50
346.1713860352
 51
73.8232374321
  0
ARC
  5
258
330
1B
100
AcDbEntity
 67
     1
  8
0
  6
Continuous
 62
     7
370
    25
100
AcDbCircle
 10
370.5114956225
 20
222.5309263161
 30
0.0
 40
6.635923159095991
100
AcDbArc
 50
2.6054784857
 51
57.39452166
  0
ARC
  5
259
330
1B
100
AcDbEntity
 67
     1
  8
0
  6
Continuous
 62
     7
370
    25
100
AcDbCircle
 10
377.5825634344
 20
226.6129668752
 30
0.0
 40
6.635923159096172
100
AcDbArc
 50
2.6054784857
 51
57.39452166
  0
LWPOLYLINE
  5
25A
330
1B
100
AcDbEntity
 67
     1
  8
0
  6
Continuous
 62
     7
370
    25
100
AcDbPolyline
 90
       25
 70
   128
 43
0.0
 10
370.6927348533
 20
207.0591065558
 10
370.6277847869
 20
208.6233009812
 10
370.4335600922
 20
210.2474211098
 10
370.1119312593
 20
211.9158257768
 10
369.6659957496
 20
213.6124473332
 10
369.1000481658
 20
215.3209463861
 10
368.4195388927
 20
217.0248691555
 10
367.6310216064
 20
218.7078059338
 10
366.7420901595
 20
220.3535491197
 10
365.7613054477
 20
221.9462493068
 10
364.6981129641
 20
223.4705679215
 10
363.5627518333
 20
224.9118249424
 10
362.3661562038
 20
226.2561402764
 10
361.1198499456
 20
227.4905674321
 10
359.8358356693
 20
228.6032182011
 10
358.5264791341
 20
229.5833771482
 10
357.2043901595
 20
230.421604807
 10
355.8823011848
 20
231.1098285869
 10
354.5729446497
 20
231.6414205167
 10
353.2889303733
 20
232.0112610755
 10
352.0426241151
 20
232.2157884966
 10
350.8460284856
 20
232.253033069
 10
349.7106673549
 20
232.1226361073
 10
348.6474748712
 20
231.8258534053
 10
347.6674652632
 20
231.3659906734
  0
LWPOLYLINE
  5
25B
330
1B
100
AcDbEntity
 67
     1
  8
0
  6
Continuous
 62
     7
370
    25
100
AcDbPolyline
 90
       10
 70
   128
 43
0.0
 10
366.7413150557
 20
198.3255337345
 10
366.7420901595
 20
198.3259812651
 10
367.6310216064
 20
198.9453860486
 10
368.4195388927
 20
199.7179201466
 10
369.1000481658
 20
200.6361436333
 10
369.6659957496
 20
201.6912135146
 10
370.1119312593
 20
202.8729688908
 10
370.4335600922
 20
204.1700288116
 10
370.6277847869
 20
205.5699018809
 10
370.6927348533
 20
207.0591065558
  0
ARC
  5
25C
330
1B
100
AcDbEntity
 67
     1
  8
0
  6
Continuous
 62
     7
370
    25
100
AcDbCircle
 10
339.1296006893
 20
246.1523414171
 30
0.0
 40
1.885710314496101
100
AcDbArc
 50
50.7967147643
 51
189.2140369905
  0
LINE
  5
25D
330
1B
100
AcDbEntity
 67
     1
  8
0
  6
Continuous
 62
     7
370
    25
100
AcDbLine
 10
374.0872716671
 20
228.1210338153
 30
0.0
 11
340.3215086519
 21
247.6135938932
 31
0.0
  0
LINE
  5
25E
330
1B
100
AcDbEntity
 67
     1
  8
0
  6
Continuous
 62
     7
370
    25
100
AcDbLine
 10
377.1405587483
 20
183.841128627
 30
0.0
 11
377.1405587483
 21
222.8325854762
 31
0.0
  0
ARC
  5
25F
330
1B
100
AcDbEntity
 67
     1
  8
0
  6
Continuous
 62
     7
370
    25
100
AcDbCircle
 10
375.2791796297
 20
183.5391829908
 30
0.0
 40
1.885710314496153
100
AcDbArc
 50
230.7967147643
 51
9.2140369905
  0
LINE
  5
260
330
1B
100
AcDbEntity
 67
     1
  8
0
  6
Continuous
 62
     7
370
    25
100
AcDbLine
 10
342.0278681866
 20
200.5854302008
 30
0.0
 11
374.0872716671
 21
182.0779305147
 31
0.0
  0
LINE
  5
261
330
1B
100
AcDbEntity
 67
     1
  8
0
  6
Continuous
 62
     7
370
    25
100
AcDbLine
 10
337.2682215707
 20
245.8503957809
 30
0.0
 11
337.2682215707
 21
208.8359694076
 31
0.0
  0
LWPOLYLINE
  5
262
330
1B
100
AcDbEntity
 67
     1
  8
0
  6
Continuous
 62
     7
370
    25
100
AcDbPolyline
 90
       24
 70
   128
 43
0.0
 10
342.3755124299
 20
242.6531378864
 10
342.3073366921
 20
243.2652750959
 10
342.1078657616
 20
243.9107269202
 10
341.7918934846
 20
244.5416231503
 10
341.3828540795
 20
245.1111730988
 10
340.9110841277
 20
245.5771358517
 10
340.4115726483
 20
245.9049530832
 10
339.9213661227
 20
246.0703120889
 10
339.4768209263
 20
246.0609489478
 10
339.1109069426
 20
245.8775580813
 10
338.850762338
 20
245.5337407509
 10
338.7156808476
 20
245.0549963153
 10
338.7156808476
 20
244.476831059
 10
338.850762338
 20
243.8421248543
 10
339.1109069426
 20
243.1979509566
 10
339.4768209263
 20
242.5920847972
 10
339.9213661227
 20
242.0694606975
 10
340.4115726483
 20
241.6688392959
 10
340.9110841277
 20
241.4199328492
 10
341.3828540795
 20
241.3412016099
 10
341.7918934846
 20
241.4384847138
 10
342.1078657616
 20
241.7045671181
 10
342.3073366921
 20
242.1197147082
 10
342.3755124299
 20
242.6531378864
  0
LWPOLYLINE
  5
263
330
1B
100
AcDbEntity
 67
     1
  8
0
  6
Continuous
 62
     7
370
    25
100
AcDbPolyline
 90
       24
 70
   128
 43
0.0
 10
375.7102231513
 20
223.409419001
 10
375.6420474136
 20
224.0215562105
 10
375.442576483
 20
224.6670080348
 10
375.126604206
 20
225.2979042649
 10
374.7175648009
 20
225.8674542134
 10
374.2457948491
 20
226.3334169663
 10
373.7462833697
 20
226.6612341978
 10
373.2560768441
 20
226.8265932035
 10
372.8115316477
 20
226.8172300624
 10
372.445617664
 20
226.6338391959
 10
372.1854730594
 20
226.2900218655
 10
372.050391569
 20
225.8112774299
 10
372.050391569
 20
225.2331121736
 10
372.1854730594
 20
224.5984059689
 10
372.445617664
 20
223.9542320713
 10
372.8115316477
 20
223.3483659119
 10
373.2560768441
 20
222.8257418121
 10
373.7462833697
 20
222.4251204105
 10
374.2457948491
 20
222.1762139638
 10
374.7175648009
 20
222.0974827245
 10
375.126604206
 20
222.1947658284
 10
375.442576483
 20
222.4608482327
 10
375.6420474136
 20
222.8759958228
 10
375.7102231513
 20
223.409419001
  0
LWPOLYLINE
  5
264
330
1B
100
AcDbEntity
 67
     1
  8
0
  6
Continuous
 62
     7
370
    25
100
AcDbPolyline
 90
       24
 70
   128
 43
0.0
 10
375.7102231513
 20
184.9157254307
 10
375.6420474136
 20
185.5278626403
 10
375.442576483
 20
186.1733144646
 10
375.126604206
 20
186.8042106946
 10
374.7175648009
 20
187.3737606432
 10
374.2457948491
 20
187.8397233961
 10
373.7462833697
 20
188.1675406276
 10
373.2560768441
 20
188.3328996333
 10
372.8115316477
 20
188.3235364922
 10
372.445617664
 20
188.1401456257
 10
372.1854730594
 20
187.7963282953
 10
372.050391569
 20
187.3175838596
 10
372.050391569
 20
186.7394186034
 10
372.1854730594
 20
186.1047123986
 10
372.445617664
 20
185.460538501
 10
372.8115316477
 20
184.8546723416
 10
373.2560768441
 20
184.3320482418
 10
373.7462833697
 20
183.9314268403
 10
374.2457948491
 20
183.6825203936
 10
374.7175648009
 20
183.6037891543
 10
375.126604206
 20
183.7010722582
 10
375.442576483
 20
183.9671546625
 10
375.6420474136
 20
184.3823022525
 10
375.7102231513
 20
184.9157254307
  0
LINE
  5
265
330
1B
100
AcDbEntity
 67
     1
  8
0
  6
Continuous
 62
     7
370
    25
100
AcDbLine
 10
384.2116265601
 20
194.4378583997
 30
0.0
 11
384.2116265601
 21
187.9231691861
 31
0.0
  0
LINE
  5
266
330
1B
100
AcDbEntity
 67
     1
  8
0
  6
Continuous
 62
     7
370
    25
100
AcDbLine
 10
384.2116265601
 20
226.9146260353
 30
0.0
 11
384.2116265601
 21
220.3999368217
 31
0.0
  0
LINE
  5
267
330
1B
100
AcDbEntity
 67
     1
  8
0
  6
Continuous
 62
     7
370
    25
100
AcDbLine
 10
409.1017852579
 20
234.7687195898
 30
0.0
 11
409.1017852579
 21
208.8066411677
 31
0.0
  0
LINE
  5
268
330
1B
100
AcDbEntity
 67
     1
  8
0
  6
Continuous
 62
     7
370
    25
100
AcDbLine
 10
375.5167587359
 20
235.4598896141
 30
0.0
 11
381.158339479
 21
232.2030743744
 31
0.0
  0
LINE
  5
269
330
1B
100
AcDbEntity
 67
     1
  8
0
  6
Continuous
 62
     7
370
    25
100
AcDbLine
 10
347.3925764637
 20
251.6956344523
 30
0.0
 11
353.0341572068
 21
248.4388192126
 31
0.0
  0
LINE
  5
26A
330
1B
100
AcDbEntity
 67
     1
  8
0
  6
Continuous
 62
     7
370
    25
100
AcDbLine
 10
377.9243159045
 20
262.8076019807
 30
0.0
 11
400.4069174337
 21
249.8286723822
 31
0.0
  0
LWPOLYLINE
  5
26B
330
1B
100
AcDbEntity
 67
     1
  8
0
  6
Continuous
 62
     7
370
    25
100
AcDbPolyline
 90
       39
 70
   128
 43
0.0
 10
369.6320746815
 20
206.4468004719
 10
369.5671246151
 20
208.0109948974
 10
369.3728999204
 20
209.6351150259
 10
369.0512710875
 20
211.3035196929
 10
368.6053355778
 20
213.0001412494
 10
368.0393879941
 20
214.7086403022
 10
367.3588787209
 20
216.4125630716
 10
366.5703614346
 20
218.0954998499
 10
365.6814299877
 20
219.7412430358
 10
364.700645276
 20
221.3339432229
 10
363.6374527923
 20
222.8582618376
 10
362.5020916616
 20
224.2995188585
 10
361.3054960321
 20
225.6438341926
 10
360.0591897738
 20
226.8782613482
 10
358.7751754975
 20
227.9909121172
 10
357.4658189624
 20
228.9710710643
 10
356.1437299877
 20
229.8092987231
 10
354.821641013
 20
230.497522503
 10
353.5122844779
 20
231.0291144328
 10
352.2282702015
 20
231.3989549917
 10
350.9819639433
 20
231.6034824127
 10
349.7853683138
 20
231.6407269852
 10
348.6500071831
 20
231.5103300234
 10
347.5868146994
 20
231.2135473214
 10
346.6060299877
 20
230.7532370589
 10
345.7170985408
 20
230.1338322754
 10
344.9285812545
 20
229.3612981774
 10
344.2480719813
 20
228.4430746907
 10
343.6821243976
 20
227.3880048094
 10
343.2361888879
 20
226.2062494332
 10
342.914560055
 20
224.9091895124
 10
342.7203353603
 20
223.5093164431
 10
342.6553852939
 20
222.0201117682
 10
342.7203353603
 20
220.4559173428
 10
342.914560055
 20
218.8317972142
 10
343.2361888879
 20
217.1633925472
 10
343.6821243976
 20
215.4667709908
 10
344.2480719813
 20
213.7582719379
 10
344.5262654944
 20
213.0259489785
  0
LWPOLYLINE
  5
26C
330
1B
100
AcDbEntity
 67
     1
  8
0
  6
Continuous
 62
     7
370
    25
100
AcDbPolyline
 90
       23
 70
   128
 43
0.0
 10
349.2883784586
 20
204.7768335643
 10
349.7853683138
 20
204.1673933816
 10
350.9819639433
 20
202.8230780476
 10
352.2282702015
 20
201.5886508919
 10
353.5122844779
 20
200.4760001229
 10
354.821641013
 20
199.4958411758
 10
356.1437299877
 20
198.657613517
 10
357.4658189624
 20
197.9693897371
 10
358.7751754975
 20
197.4377978073
 10
360.0591897738
 20
197.0679572485
 10
361.3054960321
 20
196.8634298274
 10
362.5020916616
 20
196.826185255
 10
363.6374527923
 20
196.9565822168
 10
364.700645276
 20
197.2533649187
 10
365.6814299877
 20
197.7136751812
 10
366.5703614346
 20
198.3330799648
 10
367.3588787209
 20
199.1056140627
 10
368.0393879941
 20
200.0238375494
 10
368.6053355778
 20
201.0789074307
 10
369.0512710875
 20
202.2606628069
 10
369.3728999204
 20
203.5577227277
 10
369.5671246151
 20
204.957595797
 10
369.6320746815
 20
206.4468004719
  0
LWPOLYLINE
  5
26D
330
1B
100
AcDbEntity
 67
     1
  8
0
  6
Continuous
 62
     7
370
    25
100
AcDbPolyline
 90
       13
 70
   128
 43
0.0
 10
359.5113260331
 20
212.2893843038
 10
359.4466186194
 20
213.0854015859
 10
359.2549830478
 20
213.9255379599
 10
358.943783766
 20
214.7775074562
 10
358.5249799877
 20
215.6085693647
 10
358.0146661074
 20
216.3867864424
 10
357.4324532012
 20
217.0822522434
 10
356.8007153846
 20
217.668240407
 10
356.1437299877
 20
218.1222317367
 10
355.4867445908
 20
218.4267796003
 10
354.8550067742
 20
218.5701803942
 10
354.272793868
 20
218.5469233063
 10
353.7626735056
 20
218.3580138272
  0
ARC
  5
26E
330
1B
100
AcDbEntity
 67
     1
  8
0
  6
Continuous
 62
     7
370
    25
100
AcDbCircle
 10
357.1776919729
 20
212.0317962173
 30
0.0
 40
2.347807391845144
100
AcDbArc
 50
305.013332878
 51
6.2988475154
  0
ARC
  5
26F
330
1B
100
AcDbEntity
 67
     1
  8
0
  6
Continuous
 62
     7
370
    25
100
AcDbCircle
 10
410.2043182841
 20
245.4451785316
 30
0.0
 40
7.684024037860511
100
AcDbArc
 50
182.6054784857
 51
237.39452166
  0
ARC
  5
270
330
1B
100
AcDbEntity
 67
     1
  8
0
  6
Continuous
 62
     7
370
    25
100
AcDbCircle
 10
404.4961369538
 20
234.559137033
 30
0.0
 40
4.610414422716052
100
AcDbArc
 50
2.6054784857
 51
57.39452166
  0
ARC
  5
271
330
1B
100
AcDbEntity
 67
     1
  8
0
  6
Continuous
 62
     7
370
    25
100
AcDbCircle
 10
397.9225894732
 20
245.944855222
 30
0.0
 40
4.610414422716135
100
AcDbArc
 50
2.6054784857
 51
57.39452166
  0
LINE
  5
272
330
1B
100
AcDbEntity
 67
     1
  8
0
  6
Continuous
 62
     7
370
    25
100
AcDbLine
 10
406.9804649143
 20
238.4429541932
 30
0.0
 11
406.0637716832
 21
238.9721499313
 31
0.0
  0
LINE
  5
273
330
1B
100
AcDbEntity
 67
     1
  8
0
  6
Continuous
 62
     7
370
    25
100
AcDbLine
 10
402.5282377773
 20
245.0958742703
 30
0.0
 11
402.5282377773
 21
246.1544377788
 31
0.0
  0
ARC
  5
274
330
1B
100
AcDbEntity
 67
     1
  8
0
  6
Continuous
 62
     7
370
    25
100
AcDbCircle
 10
382.1576163296
 20
187.6616537107
 30
0.0
 40
2.070591309463329
100
AcDbArc
 50
304.0563508323
 51
7.2558295611
  0
ARC
  5
275
330
1B
100
AcDbEntity
 67
     1
  8
0
  6
Continuous
 62
     7
370
    25
100
AcDbCircle
 10
346.1277476669
 20
249.9300848732
 30
0.0
 40
2.171855704624059
100
AcDbArc
 50
54.3824225248
 51
114.3071190461
  0
ARC
  5
276
330
1B
100
AcDbEntity
 67
     1
  8
0
  6
Continuous
 62
     7
370
    25
100
AcDbCircle
 10
407.67472859
 20
208.624949082
 30
0.0
 40
1.438576639335288
100
AcDbArc
 50
304.0563508338
 51
7.2558295596
  0
ARC
  5
277
330
1B
100
AcDbEntity
 67
     1
  8
0
  6
Continuous
 62
     7
370
    25
100
AcDbCircle
 10
377.04555574
 20
261.5809579933
 30
0.0
 40
1.508931707705496
100
AcDbArc
 50
54.3824225248
 51
114.3071190461
  0
LINE
  5
278
330
1B
100
AcDbEntity
 67
     1
  8
0
  6
Continuous
 62
     7
370
    25
100
AcDbLine
 10
401.9462933022
 20
203.66108014
 30
0.0
 11
401.9067955327
 21
203.6370449301
 31
0.0
  0
CIRCLE
  5
279
330
1B
100
AcDbEntity
 67
     1
  8
0
  6
Continuous
 62
     7
370
    25
100
AcDbCircle
 10
77.1322130075
 20
118.6227148488
 30
0.0
 40
3.161029999999954
  0
CIRCLE
  5
27A
330
1B
100
AcDbEntity
 67
     1
  8
0
  6
Continuous
 62
     7
370
    25
100
AcDbCircle
 10
77.1322130075
 20
118.6227148488
 30
0.0
 40
2.911029999999954
  0
CIRCLE
  5
27B
330
1B
100
AcDbEntity
 67
     1
  8
0
  6
Continuous
 62
     7
370
    25
100
AcDbCircle
 10
77.1322130075
 20
118.6227148488
 30
0.0
 40
4.762500000000003
  0
CIRCLE
  5
27C
330
1B
100
AcDbEntity
 67
     1
  8
0
  6
Continuous
 62
     7
370
    25
100
AcDbCircle
 10
77.1322130075
 20
118.6227148488
 30
0.0
 40
19.0754
  0
ARC
  5
27D
330
1B
100
AcDbEntity
 67
     1
  8
0
  6
Continuous
 62
     7
370
    25
100
AcDbCircle
 10
53.2562130075
 20
142.4987148488
 30
0.0
 40
4.317999999999991
100
AcDbArc
 50
90.0
 51
180.0
  0
LINE
  5
27E
330
1B
100
AcDbEntity
 67
     1
  8
0
  6
Continuous
 62
     7
370
    25
100
AcDbLine
 10
101.0082130075
 20
146.8167148488
 30
0.0
 11
53.2562130075
 21
146.8167148488
 31
0.0
  0
ARC
  5
27F
330
1B
100
AcDbEntity
 67
     1
  8
0
  6
Continuous
 62
     7
370
    25
100
AcDbCircle
 10
101.0082130075
 20
142.4987148488
 30
0.0
 40
4.317999999999984
100
AcDbArc
 50
0.0
 51
90.0
  0
LINE
  5
280
330
1B
100
AcDbEntity
 67
     1
  8
0
  6
Continuous
 62
     7
370
    25
100
AcDbLine
 10
105.3262130075
 20
94.7467148488
 30
0.0
 11
105.3262130075
 21
142.4987148488
 31
0.0
  0
ARC
  5
281
330
1B
100
AcDbEntity
 67
     1
  8
0
  6
Continuous
 62
     7
370
    25
100
AcDbCircle
 10
101.0082130075
 20
94.7467148488
 30
0.0
 40
4.317999999999998
100
AcDbArc
 50
270.0
 51
0.0
  0
LINE
  5
282
330
1B
100
AcDbEntity
 67
     1
  8
0
  6
Continuous
 62
     7
370
    25
100
AcDbLine
 10
53.2562130075
 20
90.4287148488
 30
0.0
 11
101.0082130075
 21
90.4287148488
 31
0.0
  0
ARC
  5
283
330
1B
100
AcDbEntity
 67
     1
  8
0
  6
Continuous
 62
     7
370
    25
100
AcDbCircle
 10
53.2562130075
 20
94.7467148488
 30
0.0
 40
4.317999999999998
100
AcDbArc
 50
180.0
 51
270.0
  0
LINE
  5
284
330
1B
100
AcDbEntity
 67
     1
  8
0
  6
Continuous
 62
     7
370
    25
100
AcDbLine
 10
48.9382130075
 20
142.4987148488
 30
0.0
 11
48.9382130075
 21
94.7467148488
 31
0.0
  0
CIRCLE
  5
285
330
1B
100
AcDbEntity
 67
     1
  8
0
  6
Continuous
 62
     7
370
    25
100
AcDbCircle
 10
53.5610130075
 20
142.1939148488
 30
0.0
 40
2.600000000000001
  0
CIRCLE
  5
286
330
1B
100
AcDbEntity
 67
     1
  8
0
  6
Continuous
 62
     7
370
    25
100
AcDbCircle
 10
100.7034130075
 20
95.0515148488
 30
0.0
 40
2.600000000000009
  0
CIRCLE
  5
287
330
1B
100
AcDbEntity
 67
     1
  8
0
  6
Continuous
 62
     7
370
    25
100
AcDbCircle
 10
53.5610130075
 20
95.0515148488
 30
0.0
 40
2.600000000000001
  0
CIRCLE
  5
288
330
1B
100
AcDbEntity
 67
     1
  8
0
  6
Continuous
 62
     7
370
    25
100
AcDbCircle
 10
100.7034130075
 20
142.1939148488
 30
0.0
 40
2.600000000000023
  0
DIMENSION
  5
289
330
1B
100
AcDbEntity
 67
     1
  8
0
  6
Continuous
 62
     7
370
    18
100
AcDbDimension
  2
_D_7
 10
105.3262130075
 20
165.0848340733
 30
0.0
 11
75.9884337833
 21
165.0848340733
 31
0.0
 70
   160
  1
<> Sq. Max
 71
     2
 42
-1.0
  3
SLDDIMSTYLE0
100
AcDbAlignedDimension
 13
48.9382130075
 23
142.4987148488
 33
0.0
 14
105.3262130075
 24
142.4987148488
 34
0.0
100
AcDbRotatedDimension
  0
DIMENSION
  5
295
330
1B
100
AcDbEntity
 67
     1
  8
0
  6
Continuous
 62
     7
370
    18
100
AcDbDimension
  2
_D_8
 10
98.7932810042
 20
140.4299999613
 30
0.0
 11
137.2699878182
 21
156.3444395026
 31
0.0
 70
   163
  1
4x <> %%p .25
 71
     1
 42
-1.0
  3
SLDDIMSTYLE1
100
AcDbDiametricDimension
 15
102.6135450107
 25
143.9578297362
 35
0.0
 40
0.0
  0
DIMENSION
  5
2A2
330
1B
100
AcDbEntity
 67
     1
  8
0
  6
Continuous
 62
     7
370
    18
100
AcDbDimension
  2
_D_9
 10
100.7034130075
 20
152.5483628267
 30
0.0
 11
78.2804274878
 21
152.5483628267
 31
0.0
 70
   160
  1
<> %%p 0.2
 71
     2
 42
-1.0
  3
SLDDIMSTYLE2
100
AcDbAlignedDimension
 13
53.5610130075
 23
142.1939148488
 33
0.0
 14
100.7034130075
 24
142.1939148488
 34
0.0
100
AcDbRotatedDimension
  0
DIMENSION
  5
2B0
330
1B
100
AcDbEntity
 67
     1
  8
0
  6
Continuous
 62
     7
370
    18
100
AcDbDimension
  2
_D_10
 10
60.4725092734
 20
127.9138480764
 30
0.0
 11
130.6514211244
 21
99.4012316055
 31
0.0
 70
   163
  1
<> %%p.05
 71
     1
 42
-1.0
  3
SLDDIMSTYLE3
100
AcDbDiametricDimension
 15
93.7919167415
 25
109.3315816211
 35
0.0
 40
0.0
  0
LINE
  5
2BC
330
1B
100
AcDbEntity
 67
     1
  8
0
  6
Continuous
 62
     7
370
    25
100
AcDbLine
 10
381.2885257009
 20
123.3852148488
 30
0.0
 11
354.1854285061
 21
123.3852148488
 31
0.0
  0
LINE
  5
2BD
330
1B
100
AcDbEntity
 67
     1
  8
0
  6
Continuous
 62
     7
370
    25
100
AcDbLine
 10
307.4854285061
 20
123.3852148488
 30
0.0
 11
183.6361805145
 21
123.3852148488
 31
0.0
  0
LINE
  5
2BE
330
1B
100
AcDbEntity
 67
     1
  8
0
  6
Continuous
 62
     7
370
    25
100
AcDbLine
 10
183.6361805145
 20
113.8602148488
 30
0.0
 11
307.4854285061
 21
113.8602148488
 31
0.0
  0
LINE
  5
2BF
330
1B
100
AcDbEntity
 67
     1
  8
0
  6
Continuous
 62
     7
370
    25
100
AcDbLine
 10
354.1854285061
 20
113.8602148488
 30
0.0
 11
381.2885257009
 21
113.8602148488
 31
0.0
  0
LINE
  5
2C0
330
1B
100
AcDbEntity
 67
     1
  8
0
  6
Continuous
 62
     7
370
    25
100
AcDbLine
 10
183.6361805145
 20
123.3852148488
 30
0.0
 11
180.8623531077
 21
121.7837448488
 31
0.0
  0
LINE
  5
2C1
330
1B
100
AcDbEntity
 67
     1
  8
0
  6
Continuous
 62
     7
370
    25
100
AcDbLine
 10
180.8623531077
 20
115.4616848488
 30
0.0
 11
183.6361805145
 21
113.8602148488
 31
0.0
  0
LINE
  5
2C2
330
1B
100
AcDbEntity
 67
     1
  8
0
  6
Continuous
 62
     7
370
    25
100
AcDbLine
 10
381.2885257009
 20
113.8602148488
 30
0.0
 11
384.0623531077
 21
115.4616848488
 31
0.0
  0
LINE
  5
2C3
330
1B
100
AcDbEntity
 67
     1
  8
0
  6
Continuous
 62
     7
370
    25
100
AcDbLine
 10
384.0623531077
 20
121.7837448488
 30
0.0
 11
381.2885257009
 21
123.3852148488
 31
0.0
  0
LINE
  5
2C4
330
1B
100
AcDbEntity
 67
     1
  8
0
  6
Continuous
 62
     7
370
    25
100
AcDbLine
 10
168.4123531077
 20
121.7837448488
 30
0.0
 11
168.1623531077
 21
121.5337448488
 31
0.0
  0
LINE
  5
2C5
330
1B
100
AcDbEntity
 67
     1
  8
0
  6
Continuous
 62
     7
370
    25
100
AcDbLine
 10
168.1623531077
 20
115.7116848488
 30
0.0
 11
168.4123531077
 21
115.4616848488
 31
0.0
  0
LINE
  5
2C6
330
1B
100
AcDbEntity
 67
     1
  8
0
  6
Continuous
 62
     7
370
    25
100
AcDbLine
 10
180.8623531077
 20
121.7837448488
 30
0.0
 11
168.4123531077
 21
121.7837448488
 31
0.0
  0
LINE
  5
2C7
330
1B
100
AcDbEntity
 67
     1
  8
0
  6
Continuous
 62
     7
370
    25
100
AcDbLine
 10
168.4123531077
 20
115.4616848488
 30
0.0
 11
180.8623531077
 21
115.4616848488
 31
0.0
  0
LINE
  5
2C8
330
1B
100
AcDbEntity
 67
     1
  8
0
  6
Continuous
 62
     7
370
    25
100
AcDbLine
 10
308.9854285061
 20
137.6981148488
 30
0.0
 11
307.4854285061
 21
137.6981148488
 31
0.0
  0
LINE
  5
2C9
330
1B
100
AcDbEntity
 67
     1
  8
0
  6
Continuous
 62
     7
370
    25
100
AcDbLine
 10
307.4854285061
 20
99.5473148488
 30
0.0
 11
308.9854285061
 21
99.5473148488
 31
0.0
  0
LINE
  5
2CA
330
1B
100
AcDbEntity
 67
     1
  8
0
  6
Continuous
 62
     7
370
    25
100
AcDbLine
 10
381.2885257009
 20
123.3852148488
 30
0.0
 11
381.2885257009
 21
113.8602148488
 31
0.0
  0
LINE
  5
2CB
330
1B
100
AcDbEntity
 67
     1
  8
0
  6
Continuous
 62
     7
370
    25
100
AcDbLine
 10
183.6361805145
 20
123.3852148488
 30
0.0
 11
183.6361805145
 21
113.8602148488
 31
0.0
  0
LINE
  5
2CC
330
1B
100
AcDbEntity
 67
     1
  8
0
  6
Continuous
 62
     7
370
    25
100
AcDbLine
 10
180.8623531077
 20
121.7837448488
 30
0.0
 11
180.8623531077
 21
115.4616848488
 31
0.0
  0
LINE
  5
2CD
330
1B
100
AcDbEntity
 67
     1
  8
0
  6
Continuous
 62
     7
370
    25
100
AcDbLine
 10
384.0623531077
 20
121.7837448488
 30
0.0
 11
384.0623531077
 21
115.4616848488
 31
0.0
  0
LINE
  5
2CE
330
1B
100
AcDbEntity
 67
     1
  8
0
  6
Continuous
 62
     7
370
    25
100
AcDbLine
 10
168.4123531077
 20
121.7837448488
 30
0.0
 11
168.4123531077
 21
115.4616848488
 31
0.0
  0
LINE
  5
2CF
330
1B
100
AcDbEntity
 67
     1
  8
0
  6
Continuous
 62
     7
370
    25
100
AcDbLine
 10
168.1623531077
 20
121.5337448488
 30
0.0
 11
168.1623531077
 21
115.7116848488
 31
0.0
  0
LINE
  5
2D0
330
1B
100
AcDbEntity
 67
     1
  8
0
  6
Continuous
 62
     7
370
    25
100
AcDbLine
 10
318.9854285061
 20
102.7251148488
 30
0.0
 11
318.9854285061
 21
94.7467148488
 31
0.0
  0
LINE
  5
2D1
330
1B
100
AcDbEntity
 67
     1
  8
0
  6
Continuous
 62
     7
370
    25
100
AcDbLine
 10
308.9854285061
 20
94.7467148488
 30
0.0
 11
308.9854285061
 21
142.4987148488
 31
0.0
  0
LINE
  5
2D2
330
1B
100
AcDbEntity
 67
     1
  8
0
  6
Continuous
 62
     7
370
    25
100
AcDbLine
 10
318.9854285061
 20
142.4987148488
 30
0.0
 11
318.9854285061
 21
134.5203148488
 31
0.0
  0
LINE
  5
2D3
330
1B
100
AcDbEntity
 67
     1
  8
0
  6
Continuous
 62
     7
370
    25
100
AcDbLine
 10
354.1854285061
 20
134.5203148488
 30
0.0
 11
354.1854285061
 21
102.7251148488
 31
0.0
  0
LINE
  5
2D4
330
1B
100
AcDbEntity
 67
     1
  8
0
  6
Continuous
 62
     7
370
    25
100
AcDbLine
 10
354.1854285061
 20
99.7251148488
 30
0.0
 11
318.9854285061
 21
99.7251148488
 31
0.0
  0
LINE
  5
2D5
330
1B
100
AcDbEntity
 67
     1
  8
0
  6
Continuous
 62
     7
370
    25
100
AcDbLine
 10
354.1854285061
 20
102.7251148488
 30
0.0
 11
354.1854285061
 21
99.7251148488
 31
0.0
  0
LINE
  5
2D6
330
1B
100
AcDbEntity
 67
     1
  8
0
  6
Continuous
 62
     7
370
    25
100
AcDbLine
 10
308.9854285061
 20
146.8167148488
 30
0.0
 11
318.9854285061
 21
146.8167148488
 31
0.0
  0
LINE
  5
2D7
330
1B
100
AcDbEntity
 67
     1
  8
0
  6
Continuous
 62
     7
370
    25
100
AcDbLine
 10
318.9854285061
 20
146.8167148488
 30
0.0
 11
318.9854285061
 21
142.4987148488
 31
0.0
  0
LINE
  5
2D8
330
1B
100
AcDbEntity
 67
     1
  8
0
  6
Continuous
 62
     7
370
    25
100
AcDbLine
 10
308.9854285061
 20
142.4987148488
 30
0.0
 11
308.9854285061
 21
146.8167148488
 31
0.0
  0
LINE
  5
2D9
330
1B
100
AcDbEntity
 67
     1
  8
0
  6
Continuous
 62
     7
370
    25
100
AcDbLine
 10
318.9854285061
 20
137.5203148488
 30
0.0
 11
354.1854285061
 21
137.5203148488
 31
0.0
  0
LINE
  5
2DA
330
1B
100
AcDbEntity
 67
     1
  8
0
  6
Continuous
 62
     7
370
    25
100
AcDbLine
 10
354.1854285061
 20
137.5203148488
 30
0.0
 11
354.1854285061
 21
134.5203148488
 31
0.0
  0
LINE
  5
2DB
330
1B
100
AcDbEntity
 67
     1
  8
0
  6
Continuous
 62
     7
370
    25
100
AcDbLine
 10
318.9854285061
 20
90.4287148488
 30
0.0
 11
308.9854285061
 21
90.4287148488
 31
0.0
  0
LINE
  5
2DC
330
1B
100
AcDbEntity
 67
     1
  8
0
  6
Continuous
 62
     7
370
    25
100
AcDbLine
 10
308.9854285061
 20
90.4287148488
 30
0.0
 11
308.9854285061
 21
94.7467148488
 31
0.0
  0
LINE
  5
2DD
330
1B
100
AcDbEntity
 67
     1
  8
0
  6
Continuous
 62
     7
370
    25
100
AcDbLine
 10
318.9854285061
 20
94.7467148488
 30
0.0
 11
318.9854285061
 21
90.4287148488
 31
0.0
  0
LINE
  5
2DE
330
1B
100
AcDbEntity
 67
     1
  8
0
  6
Continuous
 62
     7
370
    25
100
AcDbLine
 10
354.1854285061
 20
137.5203148488
 30
0.0
 11
354.1854285061
 21
142.5203148488
 31
0.0
  0
LINE
  5
2DF
330
1B
100
AcDbEntity
 67
     1
  8
0
  6
Continuous
 62
     7
370
    25
100
AcDbLine
 10
354.1854285061
 20
94.7251148488
 30
0.0
 11
354.1854285061
 21
99.7251148488
 31
0.0
  0
LINE
  5
2E0
330
1B
100
AcDbEntity
 67
     1
  8
0
  6
Continuous
 62
     7
370
    25
100
AcDbLine
 10
307.4854285061
 20
118.6227148488
 30
0.0
 11
307.4854285061
 21
137.6981148488
 31
0.0
  0
LINE
  5
2E1
330
1B
100
AcDbEntity
 67
     1
  8
0
  6
Continuous
 62
     7
370
    25
100
AcDbLine
 10
307.4854285061
 20
99.5473148488
 30
0.0
 11
307.4854285061
 21
118.6227148488
 31
0.0
  0
LINE
  5
2E2
330
1B
100
AcDbEntity
 67
     1
  8
0
  6
Continuous
 62
     7
370
    25
100
AcDbLine
 10
354.1854285061
 20
142.5203148488
 30
0.0
 11
354.1854285061
 21
143.8167148488
 31
0.0
  0
LINE
  5
2E3
330
1B
100
AcDbEntity
 67
     1
  8
0
  6
Continuous
 62
     7
370
    25
100
AcDbLine
 10
318.9854285061
 20
146.8167148488
 30
0.0
 11
354.1854285061
 21
146.8167148488
 31
0.0
  0
LINE
  5
2E4
330
1B
100
AcDbEntity
 67
     1
  8
0
  6
Continuous
 62
     7
370
    25
100
AcDbLine
 10
354.1854285061
 20
146.8167148488
 30
0.0
 11
354.1854285061
 21
143.8167148488
 31
0.0
  0
LINE
  5
2E5
330
1B
100
AcDbEntity
 67
     1
  8
0
  6
Continuous
 62
     7
370
    25
100
AcDbLine
 10
354.1854285061
 20
93.4287148488
 30
0.0
 11
354.1854285061
 21
94.7251148488
 31
0.0
  0
LINE
  5
2E6
330
1B
100
AcDbEntity
 67
     1
  8
0
  6
Continuous
 62
     7
370
    25
100
AcDbLine
 10
354.1854285061
 20
90.4287148488
 30
0.0
 11
318.9854285061
 21
90.4287148488
 31
0.0
  0
LINE
  5
2E7
330
1B
100
AcDbEntity
 67
     1
  8
0
  6
Continuous
 62
     7
370
    25
100
AcDbLine
 10
354.1854285061
 20
93.4287148488
 30
0.0
 11
354.1854285061
 21
90.4287148488
 31
0.0
  0
DIMENSION
  5
2E8
330
1B
100
AcDbEntity
 67
     1
  8
0
  6
Continuous
 62
     7
370
    18
100
AcDbDimension
  2
_D_11
 10
384.0623531077
 20
156.8167148488
 30
0.0
 11
292.9158911283
 21
156.8167148488
 31
0.0
 70
   160
  1
<> %%p 0.76
 71
     2
 42
-1.0
  3
SLDDIMSTYLE4
100
AcDbAlignedDimension
 13
180.8623531077
 23
121.7837448488
 33
0.0
 14
384.0623531077
 24
121.7837448488
 34
0.0
100
AcDbRotatedDimension
  0
DIMENSION
  5
2F6
330
1B
100
AcDbEntity
 67
     1
  8
0
  6
Continuous
 62
     7
370
    18
100
AcDbDimension
  2
_D_12
 10
308.9854285061
 20
87.0315629636
 30
0.0
 11
345.605663707
 21
87.0315629636
 31
0.0
 70
   160
  1
<>%%p0.25
 71
     2
 42
-1.0
  3
SLDDIMSTYLE5
100
AcDbAlignedDimension
 13
307.4854285061
 23
99.5473148488
 33
0.0
 14
308.9854285061
 24
90.4287148488
 34
0.0
100
AcDbRotatedDimension
  0
DIMENSION
  5
303
330
1B
100
AcDbEntity
 67
     1
  8
0
  6
Continuous
 62
     7
370
    18
100
AcDbDimension
  2
_D_13
 10
180.8623531077
 20
136.9562815257
 30
0.0
 11
146.1623531077
 21
136.9562815257
 31
0.0
 70
   160
  1
<>
 71
     2
 42
-1.0
  3
SLDDIMSTYLE4
100
AcDbAlignedDimension
 13
168.1623531077
 23
121.5337448488
 33
0.0
 14
180.8623531077
 24
121.7837448488
 34
0.0
100
AcDbRotatedDimension
  0
INSERT
  5
313
102
{ACAD_REACTORS
330
314
102
}
330
1B
100
AcDbEntity
 67
     1
  8
0
  6
Continuous
 62
     7
370
     0
100
AcDbBlockReference
  2
SW_NOTE_7
 10
215.2225433526
 20
88.435529183
 30
0.0
  0
LEADER
  5
314
330
1B
100
AcDbEntity
 67
     1
  8
0
  6
Continuous
 62
     7
370
     0
100
AcDbLeader
  3
SLDDIMSTYLE6
 73
     2
 76
     3
 10
173.5215227507
 20
116.1956433488
 30
0.0
 10
208.8725433526
 20
88.435529183
 30
0.0
 10
215.2225433526
 20
88.435529183
 30
0.0
340
313
  0
ENDSEC
  0
SECTION
  2
OBJECTS
  0
DICTIONARY
  5
C
330
0
100
AcDbDictionary
281
     1
  3
ACAD_GROUP
350
D
  3
ACAD_LAYOUT
350
1A
  3
ACAD_MLINESTYLE
350
17
  3
ACAD_PLOTSETTINGS
350
19
  3
ACAD_PLOTSTYLENAME
350
E
  3
ACAD_SCALELIST
350
47
  0
DICTIONARY
  5
D
102
{ACAD_REACTORS
330
C
102
}
330
C
100
AcDbDictionary
281
     1
  0
DICTIONARY
  5
1A
102
{ACAD_REACTORS
330
C
102
}
330
C
100
AcDbDictionary
281
     1
  3
LHS-020-0600-RF
350
1E
  3
Model
350
22
  0
DICTIONARY
  5
17
102
{ACAD_REACTORS
330
C
102
}
330
C
100
AcDbDictionary
281
     1
  3
Standard
350
18
  0
DICTIONARY
  5
19
102
{ACAD_REACTORS
330
C
102
}
330
C
100
AcDbDictionary
281
     1
  0
ACDBDICTIONARYWDFLT
  5
E
102
{ACAD_REACTORS
330
C
102
}
330
C
100
AcDbDictionary
281
     1
  3
Normal
350
F
100
AcDbDictionaryWithDefault
340
F
  0
DICTIONARY
  5
47
102
{ACAD_REACTORS
330
C
102
}
330
C
100
AcDbDictionary
281
     1
  3
A0
350
48
  3
A1
350
49
  3
A2
350
4A
  3
A3
350
4B
  3
A4
350
4C
  3
A5
350
4D
  3
A6
350
4E
  3
A7
350
4F
  3
A8
350
50
  3
A9
350
51
  3
B0
350
52
  3
B1
350
53
  3
B2
350
54
  3
B3
350
55
  3
B4
350
56
  3
B5
350
57
  3
B6
350
58
  3
B7
350
59
  3
B8
350
5A
  3
B9
350
5B
  3
C0
350
5C
  3
C1
350
5D
  3
C2
350
5E
  3
C3
350
5F
  3
C4
350
60
  3
C5
350
61
  3
C6
350
62
  3
C7
350
63
  3
C8
350
64
  3
C9
350
65
  3
D0
350
66
  3
D1
350
67
  3
D2
350
68
  0
LAYOUT
  5
1E
102
{ACAD_REACTORS
330
1A
102
}
330
1A
100
AcDbPlotSettings
  1

  2
none_device
  4
ANSI_B_(17.00_x_11.00_Inches)
  6

 40
6.35
 41
19.05
 42
6.35000508
 43
19.0499873
 44
431.8
 45
279.4
 46
0.0
 47
0.0
 48
0.0
 49
0.0
140
0.0
141
0.0
142
1.0
143
1.0
 70
  4832
 72
     1
 73
     0
 74
     1
  7

 75
     0
147
1.0
148
0.0
149
0.0
100
AcDbLayout
  1
LHS-020-0600-RF
 70
     1
 71
     1
 10
0.0
 20
0.0
 11
431.8
 21
279.4
 12
0.0
 22
0.0
 32
0.0
 14
0.0
 24
0.0
 34
0.0
 15
431.8
 25
279.4
 35
0.0
146
0.0
 13
0.0
 23
0.0
 33
0.0
 16
1.0
 26
0.0
 36
0.0
 17
0.0
 27
1.0
 37
0.0
 76
     0
330
1B
331
1CC
  0
LAYOUT
  5
22
102
{ACAD_REACTORS
330
1A
102
}
330
1A
100
AcDbPlotSettings
  1

  2
none_device
  4
Letter_(8.50_x_11.00_Inches)
  6

 40
6.35
 41
6.35
 42
6.35000508
 43
6.35000508
 44
215.9
 45
279.4
 46
0.0
 47
0.0
 48
0.0
 49
0.0
140
0.0
141
0.0
142
1.0
143
1.0
 70
  1712
 72
     1
 73
     0
 74
     0
  7

 75
     0
147
1.0
148
0.0
149
0.0
100
AcDbLayout
  1
Model
 70
     1
 71
     0
 10
0.0
 20
0.0
 11
431.8
 21
279.4
 12
0.0
 22
0.0
 32
0.0
 14
0.0
 24
0.0
 34
0.0
 15
431.8
 25
279.4
 35
0.0
146
0.0
 13
0.0
 23
0.0
 33
0.0
 16
1.0
 26
0.0
 36
0.0
 17
0.0
 27
1.0
 37
0.0
 76
     0
330
1F
331
29
  0
MLINESTYLE
  5
18
102
{ACAD_REACTORS
330
17
102
}
330
17
100
AcDbMlineStyle
  2
Standard
 70
     0
  3

 62
   256
 51
90.0
 52
90.0
 71
     2
 49
0.5
 62
   256
  6
BYLAYER
 49
-0.5
 62
   256
  6
BYLAYER
  0
ACDBPLACEHOLDER
  5
F
102
{ACAD_REACTORS
330
E
102
}
330
E
  0
SCALE
  5
48
102
{ACAD_REACTORS
330
47
102
}
330
47
100
AcDbScale
 70
     0
300
1:1
140
1.0
141
1.0
290
     1
  0
SCALE
  5
49
102
{ACAD_REACTORS
330
47
102
}
330
47
100
AcDbScale
 70
     0
300
1:2
140
1.0
141
2.0
290
     0
  0
SCALE
  5
4A
102
{ACAD_REACTORS
330
47
102
}
330
47
100
AcDbScale
 70
     0
300
1:4
140
1.0
141
4.0
290
     0
  0
SCALE
  5
4B
102
{ACAD_REACTORS
330
47
102
}
330
47
100
AcDbScale
 70
     0
300
1:5
140
1.0
141
5.0
290
     0
  0
SCALE
  5
4C
102
{ACAD_REACTORS
330
47
102
}
330
47
100
AcDbScale
 70
     0
300
1:8
140
1.0
141
8.0
290
     0
  0
SCALE
  5
4D
102
{ACAD_REACTORS
330
47
102
}
330
47
100
AcDbScale
 70
     0
300
1:10
140
1.0
141
10.0
290
     0
  0
SCALE
  5
4E
102
{ACAD_REACTORS
330
47
102
}
330
47
100
AcDbScale
 70
     0
300
1:16
140
1.0
141
16.0
290
     0
  0
SCALE
  5
4F
102
{ACAD_REACTORS
330
47
102
}
330
47
100
AcDbScale
 70
     0
300
1:20
140
1.0
141
20.0
290
     0
  0
SCALE
  5
50
102
{ACAD_REACTORS
330
47
102
}
330
47
100
AcDbScale
 70
     0
300
1:30
140
1.0
141
30.0
290
     0
  0
SCALE
  5
51
102
{ACAD_REACTORS
330
47
102
}
330
47
100
AcDbScale
 70
     0
300
1:40
140
1.0
141
40.0
290
     0
  0
SCALE
  5
52
102
{ACAD_REACTORS
330
47
102
}
330
47
100
AcDbScale
 70
     0
300
1:50
140
1.0
141
50.0
290
     0
  0
SCALE
  5
53
102
{ACAD_REACTORS
330
47
102
}
330
47
100
AcDbScale
 70
     0
300
1:100
140
1.0
141
100.0
290
     0
  0
SCALE
  5
54
102
{ACAD_REACTORS
330
47
102
}
330
47
100
AcDbScale
 70
     0
300
2:1
140
2.0
141
1.0
290
     0
  0
SCALE
  5
55
102
{ACAD_REACTORS
330
47
102
}
330
47
100
AcDbScale
 70
     0
300
4:1
140
4.0
141
1.0
290
     0
  0
SCALE
  5
56
102
{ACAD_REACTORS
330
47
102
}
330
47
100
AcDbScale
 70
     0
300
8:1
140
8.0
141
1.0
290
     0
  0
SCALE
  5
57
102
{ACAD_REACTORS
330
47
102
}
330
47
100
AcDbScale
 70
     0
300
10:1
140
10.0
141
1.0
290
     0
  0
SCALE
  5
58
102
{ACAD_REACTORS
330
47
102
}
330
47
100
AcDbScale
 70
     0
300
100:1
140
100.0
141
1.0
290
     0
  0
SCALE
  5
59
102
{ACAD_REACTORS
330
47
102
}
330
47
100
AcDbScale
 70
     0
300
1/128" = 1'-0"
140
0.0078125
141
12.0
290
     0
  0
SCALE
  5
5A
102
{ACAD_REACTORS
330
47
102
}
330
47
100
AcDbScale
 70
     0
300
1/64" = 1'-0"
140
0.015625
141
12.0
290
     0
  0
SCALE
  5
5B
102
{ACAD_REACTORS
330
47
102
}
330
47
100
AcDbScale
 70
     0
300
1/32" = 1'-0"
140
0.03125
141
12.0
290
     0
  0
SCALE
  5
5C
102
{ACAD_REACTORS
330
47
102
}
330
47
100
AcDbScale
 70
     0
300
1/16" = 1'-0"
140
0.0625
141
12.0
290
     0
  0
SCALE
  5
5D
102
{ACAD_REACTORS
330
47
102
}
330
47
100
AcDbScale
 70
     0
300
3/32" = 1'-0"
140
0.09375
141
12.0
290
     0
  0
SCALE
  5
5E
102
{ACAD_REACTORS
330
47
102
}
330
47
100
AcDbScale
 70
     0
300
1/8" = 1'-0"
140
0.125
141
12.0
290
     0
  0
SCALE
  5
5F
102
{ACAD_REACTORS
330
47
102
}
330
47
100
AcDbScale
 70
     0
300
3/16" = 1'-0"
140
0.1875
141
12.0
290
     0
  0
SCALE
  5
60
102
{ACAD_REACTORS
330
47
102
}
330
47
100
AcDbScale
 70
     0
300
1/4" = 1'-0"
140
0.25
141
12.0
290
     0
  0
SCALE
  5
61
102
{ACAD_REACTORS
330
47
102
}
330
47
100
AcDbScale
 70
     0
300
3/8" = 1'-0"
140
0.375
141
12.0
290
     0
  0
SCALE
  5
62
102
{ACAD_REACTORS
330
47
102
}
330
47
100
AcDbScale
 70
     0
300
1/2" = 1'-0"
140
0.5
141
12.0
290
     0
  0
SCALE
  5
63
102
{ACAD_REACTORS
330
47
102
}
330
47
100
AcDbScale
 70
     0
300
3/4" = 1'-0"
140
0.75
141
12.0
290
     0
  0
SCALE
  5
64
102
{ACAD_REACTORS
330
47
102
}
330
47
100
AcDbScale
 70
     0
300
1" = 1'-0"
140
1.0
141
12.0
290
     0
  0
SCALE
  5
65
102
{ACAD_REACTORS
330
47
102
}
330
47
100
AcDbScale
 70
     0
300
1-1/2" = 1'-0"
140
1.5
141
12.0
290
     0
  0
SCALE
  5
66
102
{ACAD_REACTORS
330
47
102
}
330
47
100
AcDbScale
 70
     0
300
3" = 1'-0"
140
3.0
141
12.0
290
     0
  0
SCALE
  5
67
102
{ACAD_REACTORS
330
47
102
}
330
47
100
AcDbScale
 70
     0
300
6" = 1'-0"
140
6.0
141
12.0
290
     0
  0
SCALE
  5
68
102
{ACAD_REACTORS
330
47
102
}
330
47
100
AcDbScale
 70
     0
300
1'-0" = 1'-0"
140
12.0
141
12.0
290
     0
  0
ENDSEC
  0
EOF
